<?xml version="1.0" standalone="no"?>
<!DOCTYPE svg PUBLIC "-//W3C//DTD SVG 1.1//EN" "http://www.w3.org/Graphics/SVG/1.1/DTD/svg11.dtd" >
<svg xmlns="http://www.w3.org/2000/svg">
<metadata>Generated by IcoMoon</metadata>
<defs>
<font id="iconsax" horiz-adv-x="1024">
<font-face units-per-em="1024" ascent="960" descent="-64" />
<missing-glyph horiz-adv-x="1024" />
<!--use 000000000000000000000000000000  -->
<glyph unicode="&#xe92f;" glyph-name="arrow-left" d="M408.297 157.009c-8.107 0-16.213 2.987-22.613 9.387l-258.987 258.987c-12.373 12.373-12.373 32.853 0 45.227l258.987 258.986c12.373 12.373 32.853 12.373 45.229 0 12.373-12.373 12.373-32.853 0-45.227l-236.375-236.372 236.375-236.373c12.373-12.373 12.373-32.853 0-45.227-5.975-6.4-14.509-9.387-22.615-9.387zM874.662 416h-718.079c-17.493 0-32 14.507-32 32s14.507 32 32 32h718.079c17.493 0 32-14.507 32-32s-14.507-32-32-32z" />
<glyph unicode="&#xea99;" glyph-name="grid-lock" d="M426.667-10.667h-42.667c-231.68 0-330.667 98.987-330.667 330.667v256c0 231.68 98.987 330.667 330.667 330.667h256c231.68 0 330.667-98.987 330.667-330.667v-85.333c0-17.493-14.507-32-32-32s-32 14.507-32 32v85.333c0 196.693-69.973 266.667-266.667 266.667h-256c-196.693 0-266.667-69.973-266.667-266.667v-256c0-196.693 69.973-266.667 266.667-266.667h42.667c17.493 0 32-14.507 32-32s-14.507-32-32-32zM938.722 565.333h-852.055c-17.493 0-32 14.507-32 32s14.507 32 32 32h852.055c17.493 0 32-14.507 32-32s-14.507-32-32-32zM512.055 266.667h-425.389c-17.493 0-32 14.507-32 32s14.507 32 32 32h425.389c17.493 0 32-14.507 32-32s-14.507-32-32-32zM363.084-10.24c-17.493 0-32 14.507-32 32v852.052c0 17.493 14.507 32 32 32s32-14.507 32-32v-852.052c0-17.493-14.080-32-32-32zM661.751 416.427c-17.493 0-32 14.507-32 32v425.386c0 17.493 14.507 32 32 32s32-14.507 32-32v-425.386c0-17.493-14.080-32-32-32zM870.383 194.133c-17.493 0-32 14.507-32 32v34.133c0 47.787-10.667 70.4-70.4 70.4s-70.4-22.613-70.4-70.4v-34.133c0-17.493-14.507-32-32-32s-32 14.507-32 32v34.133c0 89.173 45.227 134.4 134.4 134.4s134.4-45.227 134.4-134.4v-34.133c0-17.493-14.507-32-32-32zM853.333-10.675h-170.667c-85.333 0-117.333 32-117.333 117.333v34.133c0 85.333 32 117.333 117.333 117.333h170.667c85.333 0 117.333-32 117.333-117.333v-34.133c0-85.333-32-117.333-117.333-117.333zM682.667 194.125c-50.773 0-53.333-2.56-53.333-53.333v-34.133c0-50.347 2.987-53.333 53.333-53.333h170.667c50.347 0 53.333 2.987 53.333 53.333v34.133c0 50.773-2.56 53.333-53.333 53.333h-170.667z" />
<glyph unicode="&#xeabf;" glyph-name="info-circle" d="M512-10.667c-253.013 0-458.667 205.653-458.667 458.667s205.653 458.667 458.667 458.667c253.013 0 458.667-205.653 458.667-458.667s-205.653-458.667-458.667-458.667zM512 842.667c-217.6 0-394.667-177.067-394.667-394.667s177.067-394.667 394.667-394.667c217.6 0 394.667 177.067 394.667 394.667s-177.067 394.667-394.667 394.667zM512 373.333c-17.493 0-32 14.507-32 32v213.333c0 17.493 14.507 32 32 32s32-14.507 32-32v-213.333c0-17.493-14.507-32-32-32zM512 234.671c-5.547 0-11.093 1.28-16.213 3.413s-9.813 5.12-14.080 8.96c-3.84 4.267-6.827 8.533-8.96 14.080-2.133 5.12-3.413 10.667-3.413 16.213s1.28 11.093 3.413 16.213c2.133 5.12 5.12 9.813 8.96 14.080 4.267 3.84 8.96 6.827 14.080 8.96 10.24 4.267 22.187 4.267 32.427 0 5.12-2.133 9.813-5.12 14.080-8.96 3.84-4.267 6.827-8.96 8.96-14.080s3.413-10.667 3.413-16.213c0-5.547-1.28-11.093-3.413-16.213-2.133-5.547-5.12-9.813-8.96-14.080-4.267-3.84-8.96-6.827-14.080-8.96s-10.667-3.413-16.213-3.413z" />

<glyph unicode="&#x5ee;" glyph-name="star-15" d="M244.88 277.333c4.693 20.907-3.84 50.773-18.773 65.707l-103.68 103.68c-32.427 32.427-45.227 66.987-35.84 96.853 9.813 29.867 40.107 50.347 85.333 58.027l133.12 22.187c19.2 3.413 42.667 20.48 51.627 37.973l73.388 147.2c21.333 42.24 50.347 65.707 81.92 65.707s60.587-23.467 81.92-65.707l73.387-147.2c5.547-11.093 17.067-21.76 29.44-29.013l-459.521-459.52c-5.973-5.973-16.213-0.427-14.507 8.107l22.187 96zM797.901 342.959c-15.36-15.36-23.893-44.8-18.773-65.707l29.44-128.427c12.373-53.333 4.693-93.44-21.76-112.64-10.667-7.68-23.467-11.52-38.4-11.52-21.76 0-47.36 8.107-75.52 24.747l-125.013 74.24c-19.627 11.52-52.053 11.52-71.68 0l-125.014-74.24c-47.36-27.733-87.893-32.427-113.92-13.227-9.813 7.253-17.067 17.067-21.76 29.867l518.828 518.829c19.627 19.627 47.36 28.587 74.24 23.893l43.093-7.253c45.227-7.68 75.52-28.16 85.333-58.027 9.387-29.869-3.413-64.429-35.84-96.855l-103.253-103.68z" />

<glyph unicode="&#xea47;" glyph-name="eye" d="M511.996 263.258c-101.972 0-184.746 82.773-184.746 184.747s82.773 184.746 184.746 184.746c101.973 0 184.747-82.773 184.747-184.746s-82.773-184.747-184.747-184.747zM511.996 568.75c-66.56 0-120.746-54.186-120.746-120.746s54.186-120.747 120.746-120.747c66.56 0 120.747 54.187 120.747 120.747s-54.187 120.746-120.747 120.746zM512.004 63.147c-160.428 0-311.894 93.867-416.001 256.853-45.227 70.4-45.227 185.173 0 256.001 104.533 162.987 256 256.853 416.001 256.853s311.467-93.867 415.573-256.853c45.227-70.401 45.227-185.174 0-256.001-104.107-162.987-255.573-256.853-415.573-256.853zM512.004 768.854c-137.814 0-269.654-82.773-361.814-227.413-32-49.921-32-136.961 0-186.881 92.16-144.64 224-227.413 361.814-227.413s269.653 82.773 361.813 227.413c32 49.92 32 136.96 0 186.881-92.16 144.64-224 227.413-361.813 227.413z" />

<glyph unicode="&#xeb09;" glyph-name="message-minus" d="M682.667-10.667h-554.667c-40.96 0-74.667 33.707-74.667 74.667v554.667c0 188.587 99.413 288 288 288h341.333c188.587 0 288-99.413 288-288v-341.333c0-188.587-99.413-288-288-288zM341.333 842.667c-152.747 0-224-71.253-224-224v-554.667c0-5.973 4.693-10.667 10.667-10.667h554.667c152.747 0 224 71.253 224 224v341.333c0 152.747-71.253 224-224 224h-341.333zM661.333 416h-298.667c-17.493 0-32 14.507-32 32s14.507 32 32 32h298.667c17.493 0 32-14.507 32-32s-14.507-32-32-32z" />

<glyph unicode="&#xe991;" glyph-name="calendar-2" d="M341.333 714.667c-17.493 0-32 14.507-32 32v128c0 17.493 14.507 32 32 32s32-14.507 32-32v-128c0-17.493-14.507-32-32-32zM682.667 714.667c-17.493 0-32 14.507-32 32v128c0 17.493 14.507 32 32 32s32-14.507 32-32v-128c0-17.493-14.507-32-32-32zM874.667 540.167h-725.333c-17.493 0-32 14.507-32 32s14.507 32 32 32h725.333c17.493 0 32-14.507 32-32s-14.507-32-32-32zM682.667-10.667h-341.333c-155.733 0-245.333 89.6-245.333 245.333v362.667c0 155.733 89.6 245.333 245.333 245.333h341.333c155.733 0 245.333-89.6 245.333-245.333v-362.667c0-155.733-89.6-245.333-245.333-245.333zM341.333 778.667c-122.027 0-181.333-59.307-181.333-181.333v-362.667c0-122.027 59.307-181.333 181.333-181.333h341.333c122.027 0 181.333 59.307 181.333 181.333v362.667c0 122.027-59.307 181.333-181.333 181.333h-341.333zM362.667 341.333c-5.547 0-11.093 1.28-16.213 3.413s-9.813 5.12-14.080 8.96c-3.84 4.267-6.828 8.96-8.961 14.080s-3.413 10.667-3.413 16.213c0 11.093 4.694 22.187 12.374 30.293 4.267 3.84 8.96 6.827 14.080 8.96 7.68 3.413 16.214 4.267 24.747 2.56 2.56-0.427 5.12-1.28 7.68-2.56 2.56-0.853 5.12-2.133 7.68-3.84 2.133-1.707 4.266-3.413 6.4-5.12 1.707-2.133 3.84-4.267 5.12-6.4 1.707-2.56 2.988-5.12 3.841-7.68 1.28-2.56 2.133-5.12 2.56-7.68 0.427-2.987 0.853-5.547 0.853-8.533 0-11.093-4.694-22.187-12.374-30.293-8.107-7.68-19.2-12.373-30.293-12.373zM512 341.338c-11.093 0-22.187 4.693-30.293 12.373-1.707 2.133-3.413 4.267-5.12 6.4-1.707 2.56-2.987 5.12-3.84 7.68-1.28 2.56-2.133 5.12-2.56 7.68-0.427 2.987-0.853 5.547-0.853 8.533 0 5.547 1.28 11.093 3.413 16.213s5.12 9.813 8.96 14.080c11.947 11.947 31.147 15.787 46.507 8.96 5.547-2.133 9.813-5.12 14.080-8.96 7.68-8.107 12.373-19.2 12.373-30.293 0-2.987-0.427-5.547-0.853-8.533-0.427-2.56-1.28-5.12-2.56-7.68-0.853-2.56-2.133-5.12-3.84-7.68-1.707-2.133-3.413-4.267-5.12-6.4-4.267-3.84-8.533-6.827-14.080-8.96-5.12-2.133-10.667-3.413-16.213-3.413zM362.667 192.004c-5.547 0-11.093 1.28-16.213 3.413s-9.813 5.12-14.080 8.96c-3.84 4.267-6.828 8.533-8.961 14.080-2.133 5.12-3.413 10.667-3.413 16.213 0 11.093 4.694 22.187 12.374 30.293 4.267 3.84 8.96 6.827 14.080 8.96 15.787 6.827 34.56 2.987 46.506-8.96 1.707-2.133 3.84-4.267 5.12-6.4 1.707-2.56 2.988-5.12 3.841-7.68 1.28-2.56 2.133-5.12 2.56-8.107 0.427-2.56 0.853-5.547 0.853-8.107 0-11.093-4.694-22.187-12.374-30.293-8.107-7.68-19.2-12.373-30.293-12.373z" />

<glyph unicode="&#xe9c6;" glyph-name="clock" d="M512-10.667c-253.013 0-458.667 205.653-458.667 458.667s205.653 458.667 458.667 458.667c253.013 0 458.667-205.653 458.667-458.667s-205.653-458.667-458.667-458.667zM512 842.667c-217.6 0-394.667-177.067-394.667-394.667s177.067-394.667 394.667-394.667c217.6 0 394.667 177.067 394.667 394.667s-177.067 394.667-394.667 394.667zM670.276 280.32c-5.547 0-11.093 1.28-16.213 4.693l-132.267 78.933c-32.853 19.627-57.173 62.72-57.173 100.693v174.933c0 17.493 14.507 32 32 32s32-14.507 32-32v-174.933c0-15.36 12.8-37.973 26.027-45.653l132.267-78.933c15.36-8.96 20.053-28.587 11.093-43.947-6.4-10.24-17.067-15.787-27.733-15.787z" />

<glyph unicode="&#xeae6;" glyph-name="lock-slash" d="M511.983 138.667c-43.52 0-83.627 19.627-110.082 54.187-10.667 14.080-8.106 34.133 5.974 44.8s34.135 8.107 44.801-5.973c14.080-18.773 35.84-29.013 59.307-29.013 40.96 0 74.667 33.707 74.667 74.667 0 16.64-5.12 32.427-15.36 45.227-10.667 14.080-8.107 34.133 5.973 44.8s34.133 8.107 44.8-5.973c18.773-24.32 28.587-53.333 28.587-84.053 0-76.373-62.293-138.667-138.667-138.667zM725.333-10.667h-426.667c-15.787 0-30.72 0.427-44.8 1.28-17.493 0.853-31.147 16.213-30.293 33.707s15.787 30.293 33.707 30.293c12.8-0.853 26.453-0.853 40.96-0.853h426.667c152.32 0 181.333 29.013 181.333 181.333v85.333c0 149.76-31.573 174.080-140.373 180.48-12.8 0.853-26.453 0.853-40.96 0.853h-426.24c-152.32 0-181.333-29.013-181.333-181.333v-85.333c0-74.24 8.533-118.187 28.16-142.080 11.093-13.653 8.96-34.133-5.12-44.8-13.653-11.093-33.707-8.96-44.8 5.12-29.867 36.267-42.24 89.173-42.24 181.333v85.333c0 188.16 57.173 245.333 245.333 245.333h426.667c15.787 0 30.72-0.427 44.373-1.28 168.96-9.387 200.96-93.013 200.96-244.053v-85.333c0-188.16-57.173-245.333-245.333-245.333zM256 501.333c-17.493 0-32 14.507-32 32v85.333c0 123.733 29.867 288 288 288 173.653 0 263.68-56.747 283.307-178.773 2.987-17.493-8.96-33.707-26.453-36.693s-33.707 8.96-36.693 26.453c-10.667 64.853-44.373 125.013-220.16 125.013-186.027 0-224-89.6-224-224v-85.333c0-17.493-14.507-32-32-32zM85.31-10.662c-8.107 0-16.213 2.987-22.613 9.387-12.373 12.373-12.373 32.853 0 45.227l853.335 853.332c12.373 12.373 32.853 12.373 45.227 0s12.373-32.853 0-45.227l-853.335-853.332c-6.4-6.4-14.507-9.387-22.613-9.387z" />

<glyph unicode="&#xeb21;" glyph-name="minus-square" d="M682.667 416h-341.333c-17.493 0-32 14.507-32 32s14.507 32 32 32h341.333c17.493 0 32-14.507 32-32s-14.507-32-32-32zM640-10.667h-256c-231.68 0-330.667 98.987-330.667 330.667v256c0 231.68 98.987 330.667 330.667 330.667h256c231.68 0 330.667-98.987 330.667-330.667v-256c0-231.68-98.987-330.667-330.667-330.667zM384 842.667c-196.693 0-266.667-69.973-266.667-266.667v-256c0-196.693 69.973-266.667 266.667-266.667h256c196.693 0 266.667 69.973 266.667 266.667v256c0 196.693-69.973 266.667-266.667 266.667h-256z" />

<glyph unicode="&#xe90b;" glyph-name="add-square" d="M682.667 416h-341.333c-17.493 0-32 14.507-32 32s14.507 32 32 32h341.333c17.493 0 32-14.507 32-32s-14.507-32-32-32zM512 245.333c-17.493 0-32 14.507-32 32v341.333c0 17.493 14.507 32 32 32s32-14.507 32-32v-341.333c0-17.493-14.507-32-32-32zM640-10.667h-256c-231.68 0-330.667 98.987-330.667 330.667v256c0 231.68 98.987 330.667 330.667 330.667h256c231.68 0 330.667-98.987 330.667-330.667v-256c0-231.68-98.987-330.667-330.667-330.667zM384 842.667c-196.693 0-266.667-69.973-266.667-266.667v-256c0-196.693 69.973-266.667 266.667-266.667h256c196.693 0 266.667 69.973 266.667 266.667v256c0 196.693-69.973 266.667-266.667 266.667h-256z" />

<glyph unicode="&#xe92d;" glyph-name="arrow-down-1" d="M511.979 243.196c-29.867 0-59.733 11.52-82.347 34.133l-278.185 278.185c-12.373 12.373-12.373 32.853 0 45.227s32.853 12.373 45.227 0l278.185-278.185c20.48-20.48 53.76-20.48 74.24 0l278.187 278.185c12.373 12.373 32.853 12.373 45.227 0s12.373-32.853 0-45.227l-278.187-278.185c-22.613-22.613-52.48-34.133-82.347-34.133z" />

<glyph unicode="&#xea33;" glyph-name="element-3" d="M843.52 480h-172.373c-85.76 0-127.147 37.973-127.147 116.48v193.707c0 78.507 41.813 116.48 127.147 116.48h172.373c85.76 0 127.147-37.973 127.147-116.48v-193.28c0-78.933-41.813-116.907-127.147-116.907zM671.147 842.667c-57.173 0-63.147-16.213-63.147-52.48v-193.28c0-36.693 5.973-52.48 63.147-52.48h172.373c57.173 0 63.147 16.213 63.147 52.48v193.28c0 36.693-5.973 52.48-63.147 52.48h-172.373zM843.52-10.667h-172.373c-85.76 0-127.147 41.813-127.147 127.147v172.373c0 85.76 41.813 127.147 127.147 127.147h172.373c85.76 0 127.147-41.813 127.147-127.147v-172.373c0-85.333-41.813-127.147-127.147-127.147zM671.147 352c-50.347 0-63.147-12.8-63.147-63.147v-172.373c0-50.347 12.8-63.147 63.147-63.147h172.373c50.347 0 63.147 12.8 63.147 63.147v172.373c0 50.347-12.8 63.147-63.147 63.147h-172.373zM352.853 480h-172.373c-85.76 0-127.147 37.973-127.147 116.48v193.707c0 78.507 41.813 116.48 127.147 116.48h172.373c85.76 0 127.147-37.973 127.147-116.48v-193.28c0-78.933-41.813-116.907-127.147-116.907zM180.48 842.667c-57.173 0-63.147-16.213-63.147-52.48v-193.28c0-36.693 5.973-52.48 63.147-52.48h172.373c57.173 0 63.147 16.213 63.147 52.48v193.28c0 36.693-5.973 52.48-63.147 52.48h-172.373zM352.853-10.667h-172.373c-85.76 0-127.147 41.813-127.147 127.147v172.373c0 85.76 41.813 127.147 127.147 127.147h172.373c85.76 0 127.147-41.813 127.147-127.147v-172.373c0-85.333-41.813-127.147-127.147-127.147zM180.48 352c-50.347 0-63.147-12.8-63.147-63.147v-172.373c0-50.347 12.8-63.147 63.147-63.147h172.373c50.347 0 63.147 12.8 63.147 63.147v172.373c0 50.347-12.8 63.147-63.147 63.147h-172.373z" />

<glyph unicode="&#xec0b;" glyph-name="sort" d="M896 629.333h-768c-17.493 0-32 14.507-32 32s14.507 32 32 32h768c17.493 0 32-14.507 32-32s-14.507-32-32-32zM768 416h-512c-17.493 0-32 14.507-32 32s14.507 32 32 32h512c17.493 0 32-14.507 32-32s-14.507-32-32-32zM597.333 202.667h-170.667c-17.493 0-32 14.507-32 32s14.507 32 32 32h170.667c17.493 0 32-14.507 32-32s-14.507-32-32-32z" />

<glyph unicode="&#xebc9;" glyph-name="search-favorite" d="M469.333 74.667c-229.547 0-416 186.453-416 416s186.453 416 416 416c17.493 0 32-14.507 32-32s-14.507-32-32-32c-194.133 0-352-157.867-352-352s157.867-352 352-352c194.133 0 352 157.867 352 352 0 17.493 14.507 32 32 32s32-14.507 32-32c0-229.547-186.453-416-416-416zM703.996 552.963c-39.253 0-130.56 47.787-158.72 135.68-19.2 60.16 2.987 139.093 72.533 161.707 29.867 9.813 61.013 5.12 85.76-10.667 24.32 15.787 56.32 20.053 86.187 10.667 69.547-22.613 92.16-101.547 72.533-161.707-27.733-89.6-123.733-135.68-158.293-135.68zM606.289 707.843c19.627-61.867 86.187-90.027 98.133-91.307 13.653 1.28 78.933 32.853 96.853 90.88 9.813 31.147 0 71.253-31.147 81.493-13.227 4.267-31.147 1.707-39.68-10.667-5.973-8.96-15.36-14.080-26.027-14.507-9.813-0.427-20.48 4.693-26.453 13.227-9.813 14.080-27.733 16.213-40.533 12.373-30.72-10.24-40.96-50.347-31.147-81.493zM860.164-12.373c-3.413 0-6.827 0.427-9.813 0.853-20.053 2.56-56.32 16.213-76.8 77.227-10.667 32-6.827 64 10.667 88.32s46.933 37.973 80.64 37.973c43.52 0 77.653-16.64 93.013-46.080s11.093-66.987-13.227-103.253c-30.293-45.653-63.147-55.040-84.48-55.040zM834.564 85.76c7.253-22.187 17.493-33.28 24.32-34.133s19.627 7.253 32.853 26.453c12.373 18.347 13.227 31.573 10.24 37.547s-14.933 12.373-37.12 12.373c-13.227 0-23.040-4.267-28.587-11.52-5.12-7.253-5.973-18.347-1.707-30.72z" />

<glyph unicode="&#xe934;" glyph-name="arrow-right-1" d="M615.642 157.009c-8.107 0-16.213 2.987-22.613 9.387-12.373 12.373-12.373 32.853 0 45.227l236.373 236.373-236.373 236.372c-12.373 12.373-12.373 32.853 0 45.227s32.853 12.373 45.227 0l258.987-258.986c12.373-12.373 12.373-32.853 0-45.227l-258.987-258.987c-6.4-6.4-14.507-9.387-22.613-9.387zM867.413 416h-718.080c-17.493 0-32 14.507-32 32s14.507 32 32 32h718.080c17.493 0 32-14.507 32-32s-14.507-32-32-32z" />

<glyph unicode="&#xeb1f;" glyph-name="minus" d="M768 416h-512c-17.493 0-32 14.507-32 32s14.507 32 32 32h512c17.493 0 32-14.507 32-32s-14.507-32-32-32z" />

<glyph unicode="&#xe908;" glyph-name="add" d="M768 416h-512c-17.493 0-32 14.507-32 32s14.507 32 32 32h512c17.493 0 32-14.507 32-32s-14.507-32-32-32zM512 160c-17.493 0-32 14.507-32 32v512c0 17.493 14.507 32 32 32s32-14.507 32-32v-512c0-17.493-14.507-32-32-32z" />

<glyph unicode="&#xff99;" glyph-name="arrow-right-34" d="M380.143 78.080c-8.107 0-16.213 2.987-22.613 9.387-12.373 12.373-12.373 32.853 0 45.227l278.186 278.187c20.48 20.48 20.48 53.76 0 74.24l-278.186 278.186c-12.373 12.373-12.373 32.853 0 45.227s32.853 12.373 45.227 0l278.186-278.186c21.76-21.76 34.133-51.2 34.133-82.347s-11.947-60.587-34.133-82.347l-278.186-278.187c-6.4-5.973-14.507-9.387-22.613-9.387z" />

<glyph unicode="&#xe931;" glyph-name="arrow-left-2" d="M639.97 78.080c-8.107 0-16.213 2.987-22.613 9.387l-278.187 278.187c-45.227 45.227-45.227 119.467 0 164.693l278.187 278.186c12.373 12.373 32.853 12.373 45.227 0s12.373-32.853 0-45.227l-278.187-278.186c-20.48-20.48-20.48-53.76 0-74.24l278.187-278.187c12.373-12.373 12.373-32.853 0-45.227-6.4-5.973-14.507-9.387-22.613-9.387z" />

<glyph unicode="&#xe9c8;" glyph-name="close-circle" d="M512-10.667c-253.013 0-458.667 205.653-458.667 458.667s205.653 458.667 458.667 458.667c253.013 0 458.667-205.653 458.667-458.667s-205.653-458.667-458.667-458.667zM512 842.667c-217.6 0-394.667-177.067-394.667-394.667s177.067-394.667 394.667-394.667c217.6 0 394.667 177.067 394.667 394.667s-177.067 394.667-394.667 394.667zM391.226 295.249c-8.107 0-16.213 2.987-22.613 9.387-12.373 12.373-12.373 32.853 0 45.227l241.494 241.493c12.373 12.373 32.853 12.373 45.227 0s12.373-32.853 0-45.227l-241.495-241.493c-5.973-6.4-14.507-9.387-22.613-9.387zM632.721 295.249c-8.107 0-16.213 2.987-22.613 9.387l-241.494 241.493c-12.373 12.373-12.373 32.853 0 45.227s32.853 12.373 45.226 0l241.495-241.493c12.373-12.373 12.373-32.853 0-45.227-6.4-6.4-14.507-9.387-22.613-9.387z" />

<glyph unicode="&#xebb0;" glyph-name="rotate-left" d="M512.004-10.671c-221.868 0-401.921 180.48-401.921 401.92 0 79.787 23.467 157.012 67.84 223.572 9.813 14.507 29.867 18.773 44.373 8.96s18.773-29.867 8.96-44.373c-37.12-55.465-56.747-120.745-56.747-187.732 0-186.453 151.467-337.92 337.921-337.92s337.92 151.467 337.92 337.92c0 186.452-151.893 337.918-338.347 337.918-39.253 0-77.653-5.547-113.921-16.64-17.067-5.12-34.987 4.267-40.107 21.333s4.267 34.987 21.333 40.107c42.667 12.8 87.041 19.627 132.694 19.627 221.867 0 401.92-180.48 401.92-401.918 0-221.44-180.053-402.773-401.92-402.773zM335.802 701.008c-7.253 0-14.933 2.56-20.907 7.68-13.653 11.947-14.933 32-3.413 45.227l123.308 141.653c11.52 13.227 32 14.933 45.227 2.987 13.227-11.52 14.507-32 2.987-45.227l-123.308-141.227c-6.4-7.253-15.36-11.093-23.893-11.093zM479.556 596.048c-6.4 0-13.227 2.133-18.773 5.973l-144.214 105.387c-14.080 10.24-17.067 30.293-6.827 44.373 10.24 14.507 30.293 17.493 44.8 7.253l143.787-104.96c14.080-10.24 17.493-30.293 6.827-44.8-5.973-8.96-15.787-13.227-25.6-13.227z" />

<glyph unicode="&#xe994;" glyph-name="calendar-edit" d="M341.333 714.667c-17.493 0-32 14.507-32 32v128c0 17.493 14.507 32 32 32s32-14.507 32-32v-128c0-17.493-14.507-32-32-32zM682.667 714.667c-17.493 0-32 14.507-32 32v128c0 17.493 14.507 32 32 32s32-14.507 32-32v-128c0-17.493-14.507-32-32-32zM362.667 341.338c-5.547 0-11.093 1.28-16.213 3.413-5.547 2.133-9.813 5.12-14.080 8.96-7.68 8.107-12.374 19.2-12.374 30.293s4.694 22.187 12.374 30.293c4.267 3.84 8.96 6.827 14.080 8.96 10.24 4.267 22.187 4.267 32.427 0 5.12-2.133 9.813-5.12 14.080-8.96 1.707-2.133 3.84-4.267 5.12-6.4 1.707-2.56 2.988-5.12 3.841-7.68 1.28-2.56 2.133-5.12 2.56-7.68 0.427-2.987 0.853-5.973 0.853-8.533 0-11.093-4.694-22.187-12.374-30.293-4.267-3.84-8.96-6.827-14.080-8.96s-10.667-3.413-16.213-3.413zM512 341.338c-5.547 0-11.093 1.276-16.213 3.409-5.547 2.133-9.813 5.124-14.080 8.964-7.68 8.107-12.373 19.2-12.373 30.293 0 2.56 0.427 5.547 0.853 8.533 0.427 2.56 1.28 5.12 2.56 7.68 0.853 2.56 2.133 5.12 3.84 7.68 1.707 2.133 3.413 4.262 5.12 6.396 15.787 15.787 44.373 15.787 60.587 0 1.707-2.133 3.413-4.262 5.12-6.396 1.707-2.56 2.987-5.12 3.84-7.68 1.28-2.56 2.133-5.12 2.56-7.68 0.427-2.987 0.853-5.973 0.853-8.533 0-11.093-4.693-22.187-12.373-30.293-8.107-7.68-18.773-12.373-30.293-12.373zM362.667 192.004c-5.547 0-11.093 1.28-16.213 3.413s-9.813 5.12-14.080 8.96c-7.68 8.107-12.374 19.2-12.374 30.293 0 2.56 0.426 5.547 0.853 8.107 0.427 2.987 1.28 5.547 2.56 8.107 0.853 2.56 2.134 5.12 3.841 7.68 1.28 2.133 3.413 4.267 5.12 6.4 4.267 3.84 8.96 6.827 14.080 8.96 10.24 4.267 22.187 4.267 32.427 0 5.12-2.133 9.813-5.12 14.080-8.96 1.707-2.133 3.84-4.267 5.12-6.4 1.707-2.56 2.988-5.12 3.841-7.68 1.28-2.56 2.133-5.12 2.56-8.107 0.427-2.56 0.853-5.547 0.853-8.107 0-11.093-4.694-22.187-12.374-30.293-4.267-3.84-8.96-6.827-14.080-8.96s-10.667-3.413-16.213-3.413zM874.667 540.167h-725.333c-17.493 0-32 14.507-32 32s14.507 32 32 32h725.333c17.493 0 32-14.507 32-32s-14.507-32-32-32zM674.97-11.951c-16.213 0-31.573 5.973-42.667 17.067-13.227 13.227-19.2 32.427-16.213 52.48l8.107 57.6c2.133 14.933 11.093 32.853 21.76 43.52l151.040 151.040c20.48 20.48 40.533 31.147 62.293 33.28 26.88 2.56 52.907-8.533 77.653-33.28 26.027-26.027 61.013-78.933 0-139.947l-151.040-151.040c-10.667-10.667-28.587-19.627-43.52-21.76l-57.604-8.107c-3.413-0.427-6.396-0.853-9.809-0.853zM866.543 279.462c-0.427 0-0.853 0-1.28 0-5.973-0.427-14.080-5.973-23.040-14.933l-151.040-151.040c-1.28-1.28-3.413-5.547-3.413-7.253l-7.68-53.333 53.333 7.68c1.707 0.427 5.969 2.56 7.249 3.84l151.044 151.040c18.773 18.773 21.333 28.16 0 49.493-6.827 6.4-16.64 14.507-25.173 14.507zM892.612 138.671c-2.987 0-5.973 0.427-8.533 1.28-56.32 15.787-101.12 60.587-116.907 116.907-4.693 17.067 5.12 34.56 22.187 39.68 17.067 4.693 34.56-5.12 39.68-22.187 9.813-34.987 37.547-62.72 72.533-72.533 17.067-4.693 26.88-22.613 22.187-39.68-4.267-14.080-17.067-23.467-31.147-23.467zM512-10.667h-170.667c-155.733 0-245.333 89.6-245.333 245.333v362.667c0 155.733 89.6 245.333 245.333 245.333h341.333c155.733 0 245.333-89.6 245.333-245.333v-149.333c0-17.493-14.507-32-32-32s-32 14.507-32 32v149.333c0 122.027-59.307 181.333-181.333 181.333h-341.333c-122.027 0-181.333-59.307-181.333-181.333v-362.667c0-122.027 59.307-181.333 181.333-181.333h170.667c17.493 0 32-14.507 32-32s-14.507-32-32-32z" />

<glyph unicode="&#xec44;" glyph-name="trash" d="M895.987 672.854c-0.853 0-2.133 0-3.413 0-225.707 22.613-450.987 31.147-674.135 8.533l-87.040-8.533c-17.92-1.707-33.707 11.093-35.413 29.013s11.093 33.28 28.587 34.987l87.040 8.533c226.988 23.040 456.961 14.080 687.361-8.533 17.493-1.707 30.293-17.493 28.587-34.987-1.28-16.64-15.36-29.013-31.573-29.013zM362.698 715.947c-1.707 0-3.413 0-5.547 0.427-17.067 2.987-29.013 19.627-26.027 36.693l9.387 55.893c6.827 40.96 16.213 97.707 115.625 97.707h111.787c99.84 0 109.227-58.88 115.627-98.133l9.387-55.467c2.987-17.493-8.96-34.133-26.027-36.693-17.493-2.987-34.133 8.96-36.693 26.027l-9.387 55.467c-5.973 37.12-7.253 44.373-52.48 44.373h-111.787c-45.225 0-46.078-5.973-52.478-43.947l-9.813-55.467c-2.56-15.787-16.213-26.88-31.573-26.88zM648.977-10.671h-273.92c-148.907 0-154.88 82.347-159.573 148.907l-27.733 429.655c-1.28 17.493 12.373 32.853 29.867 34.133 17.92 0.853 32.853-12.373 34.133-29.867l27.733-429.654c4.693-64.853 6.4-89.173 95.573-89.173h273.92c89.6 0 91.307 24.32 95.573 89.173l27.733 429.654c1.28 17.493 16.64 30.72 34.133 29.867 17.493-1.28 31.147-16.213 29.867-34.133l-27.733-429.655c-4.693-66.56-10.667-148.907-159.573-148.907zM582.831 224h-142.080c-17.494 0-32.001 14.507-32.001 32s14.507 32 32.001 32h142.080c17.493 0 32-14.507 32-32s-14.507-32-32-32zM618.667 394.667h-213.333c-17.493 0-32 14.507-32 32s14.507 32 32 32h213.333c17.493 0 32-14.507 32-32s-14.507-32-32-32z" />

<glyph unicode="&#x5e7;" glyph-name="sms-star5" d="M831.198 839.733l11.947-24.32c5.973-11.947 20.907-23.040 34.133-25.6l16.213-2.56c48.64-8.107 60.16-43.947 25.173-79.36l-14.933-14.933c-9.813-10.24-15.36-29.867-12.373-43.52l2.133-8.96c13.227-58.88-17.92-81.494-69.12-50.773l-11.093 6.4c-13.227 7.68-34.56 7.68-47.787 0l-11.093-6.4c-51.627-31.147-82.773-8.107-69.12 50.773l2.133 8.96c2.987 13.653-2.56 33.28-12.373 43.52l-14.933 15.36c-34.987 35.413-23.467 71.253 25.173 79.36l16.213 2.56c12.8 2.133 28.16 13.653 34.133 25.6l11.947 24.32c23.040 46.080 60.587 46.080 83.627-0.427zM920.32 529.493c-15.36-11.093-58.453-31.573-119.893 0-6.827 3.413-15.36 3.84-22.187 0-24.32-12.373-46.507-17.493-64-17.493-27.307 0-46.507 10.667-55.893 17.493-15.787 11.52-49.067 44.373-37.547 113.92 1.28 7.253-0.853 14.507-5.547 20.053-29.44 33.707-45.653 78.933-34.133 114.347 4.267 14.080-4.693 32.853-19.2 32.853h-263.253c-128 0-213.333-64-213.333-213.333v-298.667c0-149.333 85.333-213.333 213.333-213.333h426.667c128 0 213.333 64 213.333 213.333v223.147c0 8.107-11.52 12.373-18.347 7.68zM611.84 444.16c-28.16-22.613-64-33.707-99.84-33.707s-72.107 11.093-99.84 33.707l-133.547 106.667c-13.653 11.093-15.787 31.573-5.12 45.227 11.093 13.653 31.147 16.213 44.8 5.12l133.547-106.667c32.427-26.027 87.467-26.027 119.893 0 13.653 11.093 33.707 8.96 44.8-5.12 11.52-13.653 9.387-34.133-4.693-45.227z" />

<glyph unicode="&#xe97e;" glyph-name="brush-2" d="M512-10.667c-76.373 0-138.667 62.293-138.667 138.667v32h-181.333c-31.573 0-61.013 12.373-83.2 34.987-21.76 21.333-34.133 50.773-34.133 82.347 0 59.733 46.507 110.933 106.24 116.907 2.133 0.427 6.4 0.427 11.093 0.427h640c4.693 0 8.96 0 13.227-0.853 25.173-2.133 50.347-14.080 69.973-34.133 24.32-23.467 36.693-57.6 33.707-92.587-5.12-60.16-58.453-107.093-121.6-107.093h-176.64v-32c0-76.373-62.293-138.667-138.667-138.667zM192 330.667c-0.853 0-4.267 0-5.12-0.427-26.88-2.56-48.213-26.027-48.213-52.907 0-14.080 5.547-27.307 15.36-37.12 10.24-10.667 23.467-16.213 37.973-16.213h213.333c17.493 0 32-14.507 32-32v-64c0-40.96 33.707-74.667 74.667-74.667s74.667 33.707 74.667 74.667v64c0 17.493 14.507 32 32 32h208.64c29.44 0 55.467 21.76 58.027 48.64 1.28 16.213-4.267 31.147-15.36 42.24-9.387 9.387-20.48 14.933-32.427 15.787l-5.547 0.427-640-0.427zM840.090 330.24c-1.707 0-3.413 0-5.12 0.427h-642.985c-8.96-1.707-19.627 0.853-26.453 6.827-7.253 5.547-12.8 14.080-13.227 23.040l-20.907 371.627c-4.267 43.52 10.24 88.32 40.533 122.027 30.293 33.28 73.387 52.48 118.613 52.48h442.882c45.227 0 88.316-19.2 118.609-52.907 29.867-33.28 44.8-78.080 40.533-122.453l-20.48-370.773c-0.427-8.96-4.693-17.493-11.947-23.040-5.547-4.693-12.8-7.253-20.053-7.253zM214.172 394.667h595.625l18.773 340.907c0 0.427 0 0.853 0 1.707 2.56 27.307-5.973 53.76-24.316 73.813-18.347 20.053-43.947 31.573-71.253 31.573h-442.455c-26.88 0-52.907-11.52-71.253-31.573-18.347-20.48-26.88-46.507-23.893-73.813l18.773-342.613zM340.916 629.333c-17.493 0-32 14.507-32 32v213.333c0 17.493 14.507 32 32 32s32-14.507 32-32v-213.333c0-17.493-14.507-32-32-32zM512 757.333c-17.493 0-32 14.507-32 32v85.333c0 17.493 14.507 32 32 32s32-14.507 32-32v-85.333c0-17.493-14.507-32-32-32z" />

<glyph unicode="&#xe984;" glyph-name="bucket-square" d="M441.626 175.351c-29.012 0-56.746 13.227-83.2 39.68l-120.746 120.747c-52.907 52.907-52.907 113.493 0 165.973l201.385 201.385c12.373 12.373 32.853 12.373 45.227 0l221.44-221.439c11.52-11.52 17.493-26.453 17.493-42.667s-6.4-31.573-17.493-42.667l-181.333-181.333c-25.6-26.453-53.76-39.68-82.773-39.68zM462.106 635.725l-178.772-178.774c-13.653-13.653-20.908-26.458-20.908-37.978 0-11.093 6.828-23.889 20.908-37.969l120.746-120.747c27.732-27.733 47.786-27.733 75.519 0l178.773 178.773-196.267 196.694zM462.084 648.96c-8.107 0-16.213 2.985-22.613 9.385l-40.108 40.107c-12.373 12.373-12.373 32.853 0 45.227s32.854 12.373 45.228 0l40.107-40.107c12.373-12.373 12.373-32.853 0-45.227-6.4-6.4-14.507-9.385-22.613-9.385zM232.121 388.685c-17.067 0-31.147 13.222-32 30.716s12.8 32.431 30.72 33.284l455.678 20.053c17.493 1.707 32.427-12.8 33.28-30.72 0.853-17.493-12.8-32.431-30.72-33.284l-455.678-20.049c-0.427 0-0.853 0-1.28 0zM738.142 142.938c-48.213 0-87.893 39.258-87.893 87.898 0 46.080 49.067 102.822 64 119.036 11.947 13.227 34.987 13.227 46.933 0 14.933-16.213 64-73.382 64-119.036 0.427-48.64-38.827-87.898-87.040-87.898zM738.142 277.342c-13.227-18.773-23.893-37.547-23.893-46.507 0-12.8 10.667-23.898 23.893-23.898s23.893 10.671 23.893 23.898c-0.427 8.96-10.667 27.733-23.893 46.507zM640-10.667h-256c-231.68 0-330.667 98.987-330.667 330.667v256c0 231.68 98.987 330.667 330.667 330.667h256c231.68 0 330.667-98.987 330.667-330.667v-256c0-231.68-98.987-330.667-330.667-330.667zM384 842.667c-196.693 0-266.667-69.973-266.667-266.667v-256c0-196.693 69.973-266.667 266.667-266.667h256c196.693 0 266.667 69.973 266.667 266.667v256c0 196.693-69.973 266.667-266.667 266.667h-256z" />

<glyph unicode="&#xea78;" glyph-name="gallery-favorite" d="M384 501.333c-64.853 0-117.333 52.48-117.333 117.333s52.48 117.333 117.333 117.333c64.853 0 117.333-52.48 117.333-117.333s-52.48-117.333-117.333-117.333zM384 672c-29.44 0-53.333-23.893-53.333-53.333s23.893-53.333 53.333-53.333c29.44 0 53.333 23.893 53.333 53.333s-23.893 53.333-53.333 53.333zM640-10.667h-256c-231.68 0-330.667 98.987-330.667 330.667v256c0 231.68 98.987 330.667 330.667 330.667h128c17.493 0 32-14.507 32-32s-14.507-32-32-32h-128c-196.693 0-266.667-69.973-266.667-266.667v-256c0-196.693 69.973-266.667 266.667-266.667h256c196.693 0 266.667 69.973 266.667 266.667v170.667c0 17.493 14.507 32 32 32s32-14.507 32-32v-170.667c0-231.68-98.987-330.667-330.667-330.667zM808.085 603.309c-37.12 0-124.16 45.653-151.040 128.853-18.347 57.6 2.987 133.12 69.547 154.453 28.16 8.96 57.6 5.12 81.067-9.387 23.040 14.507 53.333 18.773 81.92 9.387 66.56-21.333 87.893-96.853 69.547-154.453-26.88-84.907-118.187-128.853-151.040-128.853zM718.059 751.789c18.347-56.747 79.787-83.2 90.88-84.48 12.373 1.28 72.533 31.147 89.173 84.48 8.96 28.587 0 64.853-28.16 74.24-11.947 3.84-27.733 1.707-34.987-9.387-5.973-8.96-15.787-14.507-26.027-14.507-9.813 0-20.48 4.693-26.453 13.227-8.96 12.373-24.747 14.080-35.84 10.667-28.587-9.387-37.547-45.653-28.587-74.24zM113.952 119.462c-10.24 0-20.48 5.12-26.453 14.080-9.813 14.507-5.973 34.56 8.96 44.373l210.347 141.227c46.080 31.147 109.653 27.307 151.465-8.107l14.080-12.373c21.333-18.347 57.6-18.347 78.507 0l177.493 152.32c45.227 38.827 116.48 38.827 162.133 0l69.547-59.733c13.227-11.52 14.933-31.573 3.413-45.227-11.52-13.227-31.573-14.933-45.227-3.413l-69.547 59.733c-21.333 18.347-57.6 18.347-78.933 0l-177.493-152.32c-45.227-38.827-116.48-38.827-162.133 0l-14.078 12.373c-19.627 16.64-52.053 18.347-73.813 3.413l-210.347-141.227c-5.547-3.413-11.947-5.12-17.92-5.12z" />

<glyph unicode="&#xec63;" glyph-name="video-play" d="M640-10.667h-256c-231.68 0-330.667 98.987-330.667 330.667v256c0 231.68 98.987 330.667 330.667 330.667h256c231.68 0 330.667-98.987 330.667-330.667v-256c0-231.68-98.987-330.667-330.667-330.667zM384 842.667c-196.693 0-266.667-69.973-266.667-266.667v-256c0-196.693 69.973-266.667 266.667-266.667h256c196.693 0 266.667 69.973 266.667 266.667v256c0 196.693-69.973 266.667-266.667 266.667h-256zM916.459 624.646h-808.959c-17.493 0-32 14.507-32 32s14.080 32 32 32h808.959c17.493 0 32-14.507 32-32s-14.080-32-32-32zM363.5 630.619c-17.493 0-32 14.507-32 32v207.36c0 17.493 14.507 32 32 32s32-14.507 32-32v-207.36c0-17.493-14.507-32-32-32zM660.501 649.819c-17.493 0-32 14.507-32 32v188.16c0 17.493 14.507 32 32 32s32-14.507 32-32v-188.16c0-17.92-14.080-32-32-32zM473.173 186.889c-15.36 0-29.867 3.84-43.093 11.093-29.013 17.067-46.080 51.2-46.080 94.293v102.4c0 43.093 17.067 77.653 46.507 94.72s67.84 14.507 104.96-7.253l88.747-51.2c37.12-21.333 58.88-53.333 58.88-87.467s-21.76-66.133-59.307-87.467l-88.747-51.2c-20.48-11.947-41.813-17.92-61.867-17.92zM473.6 436.489c-4.267 0-8.107-0.853-11.093-2.56-8.96-5.12-14.507-19.627-14.507-39.253v-102.4c0-19.2 5.547-33.707 14.507-39.253 8.96-5.12 24.32-2.56 40.96 7.253l88.747 51.2c16.64 9.813 26.88 21.76 26.88 32s-9.813 22.187-26.88 32l-88.747 51.2c-11.093 6.4-21.76 9.813-29.867 9.813z" />

<glyph unicode="&#xec27;" glyph-name="text" d="M910.076 622.089c-17.493 0-32 14.507-32 32v77.653c0 31.147-25.173 56.32-56.32 56.32h-619.519c-31.147 0-56.32-25.173-56.32-56.32v-78.080c0-17.493-14.507-32-32-32s-32 14.506-32 32.426v77.653c0 66.56 54.187 120.32 120.32 120.32h619.519c66.56 0 120.32-54.187 120.32-120.32v-78.080c0-17.493-14.080-31.574-32-31.574zM512 43.951c-17.493 0-32 14.507-32 32v708.695c0 17.493 14.507 32 32 32s32-14.507 32-32v-708.695c0-17.92-14.507-32-32-32zM680.128 43.938h-336.211c-17.493 0-32 14.507-32 32s14.507 32 32 32h336.211c17.493 0 32-14.507 32-32s-14.507-32-32-32z" />

<glyph unicode="&#xeaa2;" glyph-name="heart" d="M512 36.262c-13.227 0-26.027 1.707-36.693 5.547-162.987 55.893-421.973 254.293-421.973 547.413 0 149.333 120.747 270.507 269.227 270.507 72.107 0 139.52-28.16 189.44-78.507 49.92 50.347 117.333 78.507 189.44 78.507 148.48 0 269.227-121.6 269.227-270.507 0-293.547-258.987-491.52-421.973-547.413-10.667-3.84-23.467-5.547-36.693-5.547zM322.56 795.729c-113.067 0-205.227-92.587-205.227-206.507 0-291.413 280.32-453.547 378.88-487.253 7.68-2.56 24.32-2.56 32 0 98.133 33.707 378.88 195.413 378.88 487.253 0 113.92-92.16 206.507-205.227 206.507-64.853 0-125.013-30.293-163.84-82.773-11.947-16.213-39.253-16.213-51.2 0-39.68 52.907-99.413 82.773-164.267 82.773z" />

<glyph unicode="&#xec4f;" glyph-name="undo" d="M645.585 146.769h-341.335c-17.493 0-32 14.507-32 32s14.507 32 32 32h341.335c99.84 0 181.333 81.493 181.333 181.333s-81.493 181.335-181.333 181.335h-469.335c-17.493 0-32 14.507-32 32s14.507 32 32 32h469.335c135.253 0 245.333-110.082 245.333-245.335s-110.080-245.333-245.333-245.333zM274.37 466.778c-8.107 0-16.213 2.987-22.613 9.387l-109.227 109.228c-12.373 12.373-12.373 32.853 0 45.227l109.227 109.227c12.373 12.373 32.853 12.373 45.227 0s12.373-32.853 0-45.227l-86.613-86.613 86.613-86.614c12.373-12.373 12.373-32.853 0-45.227-5.973-6.4-14.507-9.387-22.613-9.387z" />

<glyph unicode="&#xeba4;" glyph-name="redo" d="M719.748 146.769h-341.332c-135.253 0-245.333 110.080-245.333 245.333s110.080 245.335 245.333 245.335h469.332c17.493 0 32-14.507 32-32s-14.507-32-32-32h-469.332c-99.84 0-181.333-81.495-181.333-181.335s81.493-181.333 181.333-181.333h341.332c17.493 0 32-14.507 32-32s-14.080-32-32-32zM749.645 466.778c-8.107 0-16.213 2.987-22.613 9.387-12.373 12.373-12.373 32.853 0 45.227l86.613 86.614-86.613 86.613c-12.373 12.373-12.373 32.853 0 45.227s32.853 12.373 45.227 0l109.227-109.227c12.373-12.373 12.373-32.853 0-45.227l-109.227-109.228c-6.4-6.4-14.507-9.387-22.613-9.387z" />

<glyph unicode="&#xea1e;" glyph-name="document-download" d="M384 202.667c-4.267 0-8.107 0.853-12.373 2.56-11.947 4.693-19.627 16.64-19.627 29.44v256c0 17.493 14.507 32 32 32s32-14.507 32-32v-178.773l30.72 30.72c12.373 12.373 32.853 12.373 45.227 0s12.373-32.853 0-45.227l-85.333-85.333c-5.973-5.973-14.507-9.387-22.613-9.387zM383.977 202.671c-8.107 0-16.213 2.987-22.613 9.387l-85.333 85.333c-12.373 12.373-12.373 32.853 0 45.227s32.853 12.373 45.227 0l85.333-85.333c12.373-12.373 12.373-32.853 0-45.227-6.4-6.4-14.507-9.387-22.613-9.387zM640-10.667h-256c-231.68 0-330.667 98.987-330.667 330.667v256c0 231.68 98.987 330.667 330.667 330.667h213.333c17.493 0 32-14.507 32-32s-14.507-32-32-32h-213.333c-196.693 0-266.667-69.973-266.667-266.667v-256c0-196.693 69.973-266.667 266.667-266.667h256c196.693 0 266.667 69.973 266.667 266.667v213.333c0 17.493 14.507 32 32 32s32-14.507 32-32v-213.333c0-231.68-98.987-330.667-330.667-330.667zM938.667 501.333h-170.667c-145.92 0-202.667 56.747-202.667 202.667v170.667c0 12.8 7.68 24.747 19.627 29.44 11.947 5.12 25.6 2.133 34.987-6.827l341.333-341.333c8.96-8.96 11.947-23.040 6.827-34.987s-16.64-19.627-29.44-19.627zM629.333 797.44v-93.44c0-110.080 28.587-138.667 138.667-138.667h93.44l-232.107 232.107z" />

<glyph unicode="&#x49e;" glyph-name="info-circle5" d="M512 874.667c-235.093 0-426.667-191.573-426.667-426.667s191.573-426.667 426.667-426.667c235.093 0 426.667 191.573 426.667 426.667s-191.573 426.667-426.667 426.667zM480 618.667c0 17.493 14.507 32 32 32s32-14.507 32-32v-213.333c0-17.493-14.507-32-32-32s-32 14.507-32 32v213.333zM551.253 261.12c-2.133-5.547-5.12-9.813-8.96-14.080-4.267-3.84-8.96-6.827-14.080-8.96s-10.667-3.413-16.213-3.413c-5.547 0-11.093 1.28-16.213 3.413s-9.813 5.12-14.080 8.96c-3.84 4.267-6.827 8.533-8.96 14.080-2.133 5.12-3.413 10.667-3.413 16.213s1.28 11.093 3.413 16.213c2.133 5.12 5.12 9.813 8.96 14.080 4.267 3.84 8.96 6.827 14.080 8.96 10.24 4.267 22.187 4.267 32.427 0 5.12-2.133 9.813-5.12 14.080-8.96 3.84-4.267 6.827-8.96 8.96-14.080s3.413-10.667 3.413-16.213c0-5.547-1.28-11.093-3.413-16.213z" />

<glyph unicode="&#xea35;" glyph-name="element-equal" d="M843.52 480h-172.373c-85.76 0-127.147 41.813-127.147 127.147v172.373c0 85.76 41.813 127.147 127.147 127.147h172.373c85.76 0 127.147-41.813 127.147-127.147v-172.373c0-85.333-41.813-127.147-127.147-127.147zM671.147 842.667c-50.347 0-63.147-12.8-63.147-63.147v-172.373c0-50.347 12.8-63.147 63.147-63.147h172.373c50.347 0 63.147 12.8 63.147 63.147v172.373c0 50.347-12.8 63.147-63.147 63.147h-172.373zM352.853 480h-172.373c-85.76 0-127.147 37.973-127.147 116.48v193.707c0 78.507 41.813 116.48 127.147 116.48h172.373c85.76 0 127.147-37.973 127.147-116.48v-193.28c0-78.933-41.813-116.907-127.147-116.907zM180.48 842.667c-57.173 0-63.147-16.213-63.147-52.48v-193.28c0-36.693 5.973-52.48 63.147-52.48h172.373c57.173 0 63.147 16.213 63.147 52.48v193.28c0 36.693-5.973 52.48-63.147 52.48h-172.373zM352.853-10.667h-172.373c-85.76 0-127.147 41.813-127.147 127.147v172.373c0 85.76 41.813 127.147 127.147 127.147h172.373c85.76 0 127.147-41.813 127.147-127.147v-172.373c0-85.333-41.813-127.147-127.147-127.147zM180.48 352c-50.347 0-63.147-12.8-63.147-63.147v-172.373c0-50.347 12.8-63.147 63.147-63.147h172.373c50.347 0 63.147 12.8 63.147 63.147v172.373c0 50.347-12.8 63.147-63.147 63.147h-172.373zM896 266.667h-256c-17.493 0-32 14.507-32 32s14.507 32 32 32h256c17.493 0 32-14.507 32-32s-14.507-32-32-32zM896 96h-256c-17.493 0-32 14.507-32 32s14.507 32 32 32h256c17.493 0 32-14.507 32-32s-14.507-32-32-32z" />

<glyph unicode="&#xe980;" glyph-name="brush-4" d="M445.009 176.218c-6.4 0-12.373 1.707-17.92 5.547-8.96 5.973-14.080 15.787-14.080 26.453 0 6.4-0.427 13.227-1.28 20.053-3.84 30.293-17.493 56.747-40.533 79.787s-51.627 37.547-82.347 41.387c-5.12 0.427-12.373 0.853-19.2 0.427-11.093-0.853-21.333 3.84-27.733 12.8-6.4 8.533-8.107 20.053-4.693 30.293 6.4 17.493 15.787 33.28 26.88 46.080l65.707 82.773c113.066 141.226 342.186 311.039 509.866 378.452 35.413 13.653 73.387 5.547 99.413-20.053 26.88-26.88 34.987-65.28 20.907-100.267-67.413-168.107-236.8-396.799-378.027-509.866l-84.053-67.413c-15.787-11.52-28.587-18.773-41.387-23.893-3.413-1.707-7.68-2.56-11.52-2.56zM321.703 407.898c35.84-9.387 67.84-28.16 94.72-55.040 26.88-26.453 44.8-57.173 53.76-91.307l72.107 58.027c133.973 107.093 294.827 324.266 358.4 483.839 6.4 15.787-2.56 26.88-6.827 30.72-2.987 2.987-14.080 12.373-31.147 5.973-158.72-64-375.893-224.853-483.413-358.826l-57.6-73.387zM174.054-10.671c-32 0-62.72 12.8-85.76 35.84-26.453 26.453-39.253 63.147-34.987 100.693l11.52 104.96c11.093 104.107 96.427 181.333 202.24 183.467 8.107 0.427 18.773 0 28.587-0.853 46.507-5.973 87.893-26.88 121.173-60.16 32.854-32.853 52.481-72.107 58.454-116.053 1.28-9.387 2.133-19.627 2.133-28.587 0-56.32-21.76-108.8-61.014-148.48-32.853-32.427-75.093-52.48-122.88-58.453l-105.387-11.52c-4.693-0.427-9.387-0.853-14.080-0.853zM275.174 349.862c-1.707 0-3.84 0-5.547 0-64.427-1.28-132.693-45.227-141.227-126.293l-11.52-104.96c-2.133-17.92 4.267-35.413 16.64-48.213 12.373-12.373 29.867-18.773 47.36-16.64l104.96 11.52c32.853 4.267 62.293 17.92 84.48 40.107 27.307 27.307 42.667 64 42.667 103.253 0 6.4-0.427 13.227-1.28 20.053-3.84 30.293-17.493 56.747-40.533 79.787s-51.627 37.547-82.347 41.387c-3.413 0-8.533 0-13.653 0zM607.565 310.605c-17.493 0-32 14.507-32 32 0 93.867-76.373 169.813-169.815 169.813-17.493 0-32 14.507-32 31.999s14.080 32 31.573 32c128.855 0 233.815-104.959 233.815-233.812 0.427-17.92-14.080-32-31.573-32z" />

<glyph unicode="&#xebd3;" glyph-name="security" d="M511.991-10.671c-10.24 0-20.476 1.28-30.289 4.267-221.442 61.013-381.869 267.951-381.869 492.378v187.305c0 47.787 34.56 99.411 78.934 117.758l237.654 97.281c61.868 25.173 129.704 25.173 191.144 0l237.653-97.281c44.373-18.347 78.938-69.971 78.938-117.758v-187.305c0-224-160.858-430.938-381.871-492.378-9.813-2.987-20.053-4.267-30.293-4.267zM511.991 842.664c-24.32 0-48.213-4.694-71.253-14.080l-237.651-97.279c-20.48-8.533-39.254-36.267-39.254-58.453v-187.309c0-195.84 140.8-376.747 334.932-430.507 8.533-2.56 17.92-2.56 26.453 0 194.133 53.76 334.938 234.667 334.938 430.507v187.309c0 22.187-18.778 49.92-39.258 58.453l-237.649 97.279c-23.040 9.387-46.938 14.080-71.258 14.080z" />

<glyph unicode="&#x481;" glyph-name="heart5" d="M701.44 827.667c-77.227 0-146.347-37.547-189.44-95.147-43.093 57.6-112.213 95.147-189.44 95.147-130.987 0-237.227-106.667-237.227-238.507 0-50.773 8.107-97.708 22.187-141.228 67.413-213.333 275.2-340.907 378.027-375.893 14.507-5.12 38.4-5.12 52.907 0 102.827 34.987 310.613 162.56 378.027 375.893 14.080 43.52 22.187 90.455 22.187 141.228 0 131.84-106.24 238.507-237.227 238.507z" />

<glyph unicode="&#x426;" glyph-name="eye4" d="M906.667 569.613c-98.56 154.88-242.773 244.053-394.667 244.053-75.947 0-149.76-22.187-217.173-63.573-67.413-41.813-128-102.827-177.493-180.48-42.667-66.987-42.667-175.787 0-242.774 98.56-155.307 242.773-244.053 394.667-244.053 75.947 0 149.76 22.187 217.173 63.573 67.413 41.813 128 102.827 177.493 180.48 42.667 66.56 42.667 175.787 0 242.774zM512 275.639c-95.573 0-172.373 77.227-172.373 172.373s76.8 172.374 172.373 172.374c95.573 0 172.373-77.227 172.373-172.374s-76.8-172.373-172.373-172.373zM511.932 570c-66.987 0-121.598-54.612-121.598-122.026 0-66.987 54.612-121.6 121.598-121.6s122.027 54.613 122.027 121.6c0 66.987-55.040 122.026-122.027 122.026z" />

<glyph unicode="&#xe92a;" glyph-name="arrow-circle-right" d="M512-10.667c-253.013 0-458.667 205.653-458.667 458.667s205.653 458.667 458.667 458.667c253.013 0 458.667-205.653 458.667-458.667s-205.653-458.667-458.667-458.667zM512 842.667c-217.6 0-394.667-177.067-394.667-394.667s177.067-394.667 394.667-394.667c217.6 0 394.667 177.067 394.667 394.667s-177.067 394.667-394.667 394.667zM458.227 265.378c-8.107 0-16.213 2.987-22.613 9.387-12.374 12.373-12.374 32.853 0 45.227l128 128-128 128.002c-12.374 12.373-12.374 32.853 0 45.227s32.853 12.373 45.227 0l150.613-150.615c12.373-12.373 12.373-32.853 0-45.227l-150.613-150.613c-6.4-6.4-14.507-9.387-22.613-9.387z" />

<glyph unicode="&#xec32;" glyph-name="tick-circle" d="M512-10.667c-253.013 0-458.667 205.653-458.667 458.667s205.653 458.667 458.667 458.667c253.013 0 458.667-205.653 458.667-458.667s-205.653-458.667-458.667-458.667zM512 842.667c-217.6 0-394.667-177.067-394.667-394.667s177.067-394.667 394.667-394.667c217.6 0 394.667 177.067 394.667 394.667s-177.067 394.667-394.667 394.667zM451.392 295.249c-8.533 0-16.64 3.413-22.613 9.387l-120.749 120.747c-12.373 12.373-12.373 32.853 0 45.227s32.853 12.373 45.227 0l98.135-98.133 219.307 219.307c12.373 12.373 32.853 12.373 45.227 0s12.373-32.853 0-45.227l-241.92-241.92c-5.973-5.973-14.080-9.387-22.613-9.387z" />

<glyph unicode="&#xe929;" glyph-name="arrow-circle-left" d="M512-10.667c-253.013 0-458.667 205.653-458.667 458.667s205.653 458.667 458.667 458.667c253.013 0 458.667-205.653 458.667-458.667s-205.653-458.667-458.667-458.667zM512 842.667c-217.6 0-394.667-177.067-394.667-394.667s177.067-394.667 394.667-394.667c217.6 0 394.667 177.067 394.667 394.667s-177.067 394.667-394.667 394.667zM565.756 265.378c-8.107 0-16.213 2.987-22.613 9.387l-150.612 150.613c-12.373 12.373-12.373 32.853 0 45.227l150.612 150.615c12.373 12.373 32.853 12.373 45.227 0s12.373-32.853 0-45.227l-128-128.002 128-128c12.373-12.373 12.373-32.853 0-45.227-5.973-6.4-14.080-9.387-22.613-9.387z" />

<glyph unicode="&#xe948;" glyph-name="backward" d="M855.467 176.636c-19.627 0-39.68 5.12-57.6 15.787l-270.507 156.16c-12.373 7.253-22.187 15.787-29.44 25.173-4.693 5.547-7.253 12.8-7.253 20.053v109.227c0 7.253 2.56 14.507 7.253 20.053 7.68 9.387 17.493 17.921 29.44 24.748l270.933 156.587c35.84 20.907 78.933 20.907 115.2 0s57.6-58.026 57.6-99.84v-312.322c0-41.813-21.333-78.933-57.6-99.84-18.347-10.667-38.4-15.787-58.027-15.787zM554.24 407.036c1.707-1.28 3.413-2.56 5.12-3.413l270.080-155.733c16.213-9.387 35.413-9.387 51.2 0 16.213 9.387 25.6 26.027 25.6 44.373v312.322c0 18.347-9.387 34.985-25.6 44.372s-34.987 9.387-51.2 0l-270.507-156.161c-1.707-0.853-3.413-2.133-4.693-3.413v-82.347zM439.040 176.636c-19.626 0-39.68 5.12-57.6 15.787l-270.506 156.16c-35.84 20.907-57.6 58.027-57.6 99.84s21.334 78.933 57.6 99.842l270.506 156.16c35.84 20.907 78.933 20.907 115.2 0s57.6-58.026 57.6-99.84v-312.322c0-41.813-21.333-78.933-57.6-99.84-17.92-10.667-37.973-15.787-57.6-15.787zM439.040 655.357c-8.96 0-17.493-2.132-25.6-6.826l-270.506-156.162c-16.213-9.387-25.6-26.027-25.6-44.373s9.387-34.987 25.6-44.373l270.506-156.16c16.213-9.387 35.413-9.387 51.2 0 16.213 9.387 25.6 25.6 25.6 44.373v312.322c0 18.347-9.387 34.987-25.6 44.373-8.107 4.693-16.64 6.826-25.6 6.826z" />

<glyph unicode="&#xebcf;" glyph-name="search-zoom-in" d="M605.875 428.8h-213.333c-17.493 0-32 14.507-32 32s14.507 32 32 32h213.333c17.493 0 32-14.507 32-32s-14.507-32-32-32zM499.209 322.133c-17.493 0-32 14.507-32 32v213.335c0 17.493 14.507 32 32 32s32-14.507 32-32v-213.335c0-17.493-14.507-32-32-32zM490.667 32c-241.067 0-437.333 196.267-437.333 437.333s196.267 437.333 437.333 437.333c241.067 0 437.333-196.267 437.333-437.333s-196.267-437.333-437.333-437.333zM490.667 842.667c-206.080 0-373.333-167.68-373.333-373.333s167.253-373.333 373.333-373.333c206.080 0 373.333 167.68 373.333 373.333s-167.253 373.333-373.333 373.333zM938.684-10.662c-8.107 0-16.213 2.987-22.613 9.387l-85.333 85.333c-12.373 12.373-12.373 32.853 0 45.227s32.853 12.373 45.227 0l85.333-85.333c12.373-12.373 12.373-32.853 0-45.227-6.4-6.4-14.507-9.387-22.613-9.387z" />

<glyph unicode="&#xebd1;" glyph-name="search-zoom-out" d="M469.333 74.667c-229.547 0-416 186.453-416 416s186.453 416 416 416c229.547 0 416-186.453 416-416s-186.453-416-416-416zM469.333 842.667c-194.133 0-352-157.867-352-352s157.867-352 352-352c194.133 0 352 157.867 352 352s-157.867 352-352 352zM576 458.667h-213.333c-17.493 0-32 14.507-32 32s14.507 32 32 32h213.333c17.493 0 32-14.507 32-32s-14.507-32-32-32zM860.164-12.373c-3.413 0-6.827 0.427-9.813 0.853-20.053 2.56-56.32 16.213-76.8 77.227-10.667 32-6.827 64 10.667 88.32s46.933 37.973 80.64 37.973c43.52 0 77.653-16.64 93.013-46.080s11.093-66.987-13.227-103.253c-30.293-45.653-63.147-55.040-84.48-55.040zM834.564 85.76c7.253-22.187 17.493-33.28 24.32-34.133s19.627 7.253 32.853 26.453c12.373 18.347 13.227 31.573 10.24 37.547s-14.933 12.373-37.12 12.373c-13.227 0-23.040-4.267-28.587-11.52-5.12-7.253-5.973-18.347-1.707-30.72z" />

<glyph unicode="&#xeaf8;" glyph-name="maximize-2" d="M640-10.667h-42.667c-17.493 0-32 14.507-32 32s14.507 32 32 32h42.667c196.693 0 266.667 69.973 266.667 266.667v256c0 196.693-69.973 266.667-266.667 266.667h-256c-196.693 0-266.667-69.973-266.667-266.667v-41.813c0-17.493-14.507-32-32-32s-32 14.507-32 32v41.813c0 231.68 98.987 330.667 330.667 330.667h256c231.68 0 330.667-98.987 330.667-330.667v-256c0-231.68-98.987-330.667-330.667-330.667zM554.645 458.658c-8.107 0-16.213 2.987-22.613 9.387-12.373 12.373-12.373 32.853 0 45.227l159.573 160h-94.293c-17.493 0-32 14.507-32 32s14.080 32 32 32h171.093c12.8 0 24.747-7.68 29.44-19.627 5.12-11.947 2.133-25.6-6.827-34.987l-213.76-214.612c-6.4-6.4-14.507-9.387-22.613-9.387zM768.418 501.751c-17.493 0-32 14.507-32 32v171.52c0 17.493 14.507 32 32 32s32-14.507 32-32v-171.093c0-17.92-14.507-32.426-32-32.426zM334.933-10.667h-115.2c-113.493 0-166.4 52.907-166.4 166.4v115.2c0 113.493 52.907 166.4 166.4 166.4h115.2c113.493 0 166.4-52.907 166.4-166.4v-115.2c0-113.493-52.907-166.4-166.4-166.4zM219.733 373.333c-78.507 0-102.4-23.893-102.4-102.4v-115.2c0-78.507 23.893-102.4 102.4-102.4h115.2c78.507 0 102.4 23.893 102.4 102.4v115.2c0 78.507-23.893 102.4-102.4 102.4h-115.2z" />

<glyph unicode="&#xebb2;" glyph-name="rotate-right" d="M512.004-10.662c-221.868 0-401.921 180.48-401.921 401.92s180.053 402.347 401.921 402.347c45.653 0 90.027-6.4 132.693-19.627 17.067-5.12 26.453-23.040 21.333-40.107s-23.040-26.453-40.107-21.333c-36.267 11.093-74.667 17.067-113.92 17.067-186.454 0-337.921-151.467-337.921-337.92s151.467-337.92 337.921-337.92c186.453 0 337.92 151.467 337.92 337.92 0 67.413-19.627 132.267-56.747 187.733-9.813 14.507-5.973 34.56 8.96 44.373 14.507 9.813 34.56 5.973 44.373-8.96 44.373-66.133 67.84-143.36 67.84-223.573-0.427-221.44-180.48-401.92-402.347-401.92zM688.23 701.004c-8.96 0-17.92 3.84-24.32 11.093l-123.307 141.653c-11.52 13.227-10.24 33.707 2.987 45.227s33.707 10.24 45.227-2.987l123.307-141.653c11.52-13.227 10.24-33.707-2.987-45.227-5.547-5.547-13.227-8.107-20.907-8.107zM544.435 596.045c-9.813 0-19.627 4.693-26.027 13.227-10.24 14.080-7.253 34.133 6.827 44.8l143.787 104.96c14.080 10.667 34.133 7.253 44.8-6.827s7.253-34.133-6.827-44.8l-143.787-105.387c-5.547-4.267-11.947-5.973-18.773-5.973z" />

<glyph unicode="&#xeb3a;" glyph-name="more-square" d="M640-10.667h-256c-231.68 0-330.667 98.987-330.667 330.667v256c0 231.68 98.987 330.667 330.667 330.667h256c231.68 0 330.667-98.987 330.667-330.667v-256c0-231.68-98.987-330.667-330.667-330.667zM384 842.667c-196.693 0-266.667-69.973-266.667-266.667v-256c0-196.693 69.973-266.667 266.667-266.667h256c196.693 0 266.667 69.973 266.667 266.667v256c0 196.693-69.973 266.667-266.667 266.667h-256zM512 405.333c-23.893 0-42.667 19.2-42.667 42.667s19.2 42.667 42.667 42.667c23.467 0 42.667-19.2 42.667-42.667s-18.773-42.667-42.667-42.667zM682.667 405.333c-23.893 0-42.667 19.2-42.667 42.667s19.2 42.667 42.667 42.667c23.467 0 42.667-19.2 42.667-42.667s-18.773-42.667-42.667-42.667zM341.333 405.333c-23.893 0-42.667 19.2-42.667 42.667s19.2 42.667 42.667 42.667c23.467 0 42.667-19.2 42.667-42.667s-18.773-42.667-42.667-42.667z" />

<glyph unicode="&#xea28;" glyph-name="document-upload" d="M383.977 202.667c-17.493 0-32 14.507-32 32v178.773l-30.72-30.72c-12.373-12.373-32.853-12.373-45.227 0s-12.373 32.853 0 45.227l85.333 85.333c8.96 8.96 23.040 11.947 34.987 6.827 11.947-4.693 19.627-16.64 19.627-29.44v-256c0-17.493-14.507-32-32-32zM469.312 373.338c-8.107 0-16.213 2.987-22.613 9.387l-85.335 85.333c-12.373 12.373-12.373 32.853 0 45.227s32.853 12.373 45.227 0l85.335-85.333c12.373-12.373 12.373-32.853 0-45.227-6.4-6.4-14.507-9.387-22.613-9.387zM640-10.667h-256c-231.68 0-330.667 98.987-330.667 330.667v256c0 231.68 98.987 330.667 330.667 330.667h213.333c17.493 0 32-14.507 32-32s-14.507-32-32-32h-213.333c-196.693 0-266.667-69.973-266.667-266.667v-256c0-196.693 69.973-266.667 266.667-266.667h256c196.693 0 266.667 69.973 266.667 266.667v213.333c0 17.493 14.507 32 32 32s32-14.507 32-32v-213.333c0-231.68-98.987-330.667-330.667-330.667zM938.667 501.333h-170.667c-145.92 0-202.667 56.747-202.667 202.667v170.667c0 12.8 7.68 24.747 19.627 29.44 11.947 5.12 25.6 2.133 34.987-6.827l341.333-341.333c8.96-8.96 11.947-23.040 6.827-34.987s-16.64-19.627-29.44-19.627zM629.333 797.44v-93.44c0-110.080 28.587-138.667 138.667-138.667h93.44l-232.107 232.107z" />

<glyph unicode="&#xec2f;" glyph-name="text-bold" d="M512.038 416h-303.788c-17.493 0-32 14.507-32 32v320c0 64.853 52.48 117.333 117.333 117.333h218.455c129.28 0 234.667-105.387 234.667-234.667s-105.387-234.667-234.667-234.667zM239.823 480h272.215c94.293 0 170.667 76.373 170.667 170.667s-76.373 170.667-170.667 170.667h-218.455c-29.44 0-53.333-23.893-53.333-53.333v-288h-0.427zM613.585 10.667h-320.002c-64.853 0-117.333 52.48-117.333 117.333v320c0 17.493 14.507 32 32 32h405.335c129.28 0 234.667-105.387 234.667-234.667s-105.387-234.667-234.667-234.667zM239.823 416v-288c0-29.44 23.893-53.333 53.333-53.333h320.002c94.293 0 170.667 76.373 170.667 170.667s-76.373 170.667-170.667 170.667h-373.335z" />

<glyph unicode="&#xec30;" glyph-name="text-italic" d="M805.585 800h-395.095c-17.493 0-31.573 14.507-31.573 32s14.507 32 32 32h394.668c17.493 0 32-14.507 32-32s-14.507-32-32-32zM613.508 32h-395.092c-17.493 0-32 14.507-32 32s14.507 32 32 32h394.665c17.493 0 32-14.507 32-32s-14.080-32-31.573-32zM416.004 31.996c-2.56 0-5.12 0.427-7.68 0.853-17.067 4.267-27.733 21.76-23.467 38.827l192 768c4.267 17.067 21.333 27.733 38.827 23.467 17.067-4.267 27.733-21.76 23.467-38.827l-192-768c-3.84-14.507-16.64-24.32-31.147-24.32z" />

<glyph unicode="&#xec2a;" glyph-name="textalign-justifyleft" d="M512 736h-384c-17.493 0-32 14.507-32 32s14.507 32 32 32h384c17.493 0 32-14.507 32-32s-14.507-32-32-32zM512 522.667h-384c-17.493 0-32 14.507-32 32s14.507 32 32 32h384c17.493 0 32-14.507 32-32s-14.507-32-32-32zM896 309.333h-768c-17.493 0-32 14.507-32 32s14.507 32 32 32h768c17.493 0 32-14.507 32-32s-14.507-32-32-32zM896 96h-768c-17.493 0-32 14.507-32 32s14.507 32 32 32h768c17.493 0 32-14.507 32-32s-14.507-32-32-32z" />

<glyph unicode="&#x287;" glyph-name="textalign-justifyleft4" d="M512 736h-384c-17.493 0-32 14.507-32 32s14.507 32 32 32h384c17.493 0 32-14.507 32-32s-14.507-32-32-32zM512 522.667h-384c-17.493 0-32 14.507-32 32s14.507 32 32 32h384c17.493 0 32-14.507 32-32s-14.507-32-32-32zM896 309.333h-768c-17.493 0-32 14.507-32 32s14.507 32 32 32h768c17.493 0 32-14.507 32-32s-14.507-32-32-32zM896 96h-768c-17.493 0-32 14.507-32 32s14.507 32 32 32h768c17.493 0 32-14.507 32-32s-14.507-32-32-32z" />

<glyph unicode="&#xec28;" glyph-name="textalign-center" d="M896 736h-768c-17.493 0-32 14.507-32 32s14.507 32 32 32h768c17.493 0 32-14.507 32-32s-14.507-32-32-32zM714.231 522.667h-404.481c-17.493 0-32 14.507-32 32s14.507 32 32 32h404.055c17.493 0 32-14.507 32-32s-14.080-32-31.573-32zM896 309.333h-768c-17.493 0-32 14.507-32 32s14.507 32 32 32h768c17.493 0 32-14.507 32-32s-14.507-32-32-32zM714.231 96h-404.481c-17.493 0-32 14.507-32 32s14.507 32 32 32h404.055c17.493 0 32-14.507 32-32s-14.080-32-31.573-32z" />

<glyph unicode="&#xec29;" glyph-name="textalign-justifycenter" d="M896 736h-768c-17.493 0-32 14.507-32 32s14.507 32 32 32h768c17.493 0 32-14.507 32-32s-14.507-32-32-32zM896 522.667h-768c-17.493 0-32 14.507-32 32s14.507 32 32 32h768c17.493 0 32-14.507 32-32s-14.507-32-32-32zM896 309.333h-768c-17.493 0-32 14.507-32 32s14.507 32 32 32h768c17.493 0 32-14.507 32-32s-14.507-32-32-32zM896 96h-768c-17.493 0-32 14.507-32 32s14.507 32 32 32h768c17.493 0 32-14.507 32-32s-14.507-32-32-32z" />

<glyph unicode="&#xec2b;" glyph-name="textalign-justifyright" d="M896 736h-384c-17.493 0-32 14.507-32 32s14.507 32 32 32h384c17.493 0 32-14.507 32-32s-14.507-32-32-32zM896 522.667h-384c-17.493 0-32 14.507-32 32s14.507 32 32 32h384c17.493 0 32-14.507 32-32s-14.507-32-32-32zM896 309.333h-768c-17.493 0-32 14.507-32 32s14.507 32 32 32h768c17.493 0 32-14.507 32-32s-14.507-32-32-32zM896 96h-768c-17.493 0-32 14.507-32 32s14.507 32 32 32h768c17.493 0 32-14.507 32-32s-14.507-32-32-32z" />

<glyph unicode="&#x5e3;" glyph-name="sms5" d="M725.333 810.667h-426.667c-128 0-213.333-64-213.333-213.333v-298.667c0-149.333 85.333-213.333 213.333-213.333h426.667c128 0 213.333 64 213.333 213.333v298.667c0 149.333-85.333 213.333-213.333 213.333zM745.387 550.827l-133.547-106.667c-28.16-22.613-64-33.707-99.84-33.707s-72.107 11.093-99.84 33.707l-133.547 106.667c-13.653 11.093-15.787 31.573-5.12 45.227 11.093 13.653 31.147 16.213 44.8 5.12l133.547-106.667c32.427-26.027 87.467-26.027 119.893 0l133.547 106.667c13.653 11.093 34.133 8.96 44.8-5.12 11.093-13.653 8.96-34.133-4.693-45.227z" />

<glyph unicode="&#x561;" glyph-name="quote-down5" d="M678.75 432.154h200.107c-3.413-199.253-42.667-232.107-165.12-304.64-14.080-8.533-18.773-26.453-10.24-40.96 8.533-14.080 26.453-18.773 40.96-10.24 144.213 85.333 194.56 137.387 194.56 385.707v229.973c0 72.96-59.307 131.84-131.84 131.84h-128c-75.093 0-131.84-56.747-131.84-131.84v-128c-0.427-75.093 56.32-131.84 131.413-131.84zM217.173 432.154h200.107c-3.413-199.253-42.667-232.107-165.12-304.64-14.080-8.533-18.773-26.453-10.24-40.96 8.533-14.080 26.453-18.773 40.96-10.24 144.213 85.333 194.56 137.387 194.56 385.707v229.973c0 72.96-59.307 131.84-131.84 131.84h-128c-75.52 0-132.267-56.747-132.267-131.84v-128c0-75.093 56.747-131.84 131.84-131.84z" />

<glyph unicode="&#xeb00;" glyph-name="menu-1" d="M896 629.333h-768c-17.493 0-32 14.507-32 32s14.507 32 32 32h768c17.493 0 32-14.507 32-32s-14.507-32-32-32zM896 416h-768c-17.493 0-32 14.507-32 32s14.507 32 32 32h768c17.493 0 32-14.507 32-32s-14.507-32-32-32zM896 202.667h-768c-17.493 0-32 14.507-32 32s14.507 32 32 32h768c17.493 0 32-14.507 32-32s-14.507-32-32-32z" />

<glyph unicode="&#x311;" glyph-name="arrow-down5" d="M764.535 611h-505.175c-40.96 0-61.44-49.493-32.427-78.507l221.015-221.013c35.413-35.413 93.013-35.413 128.427 0l221.013 221.013c28.587 29.014 8.107 78.507-32.853 78.507z" />

<glyph unicode="&#x404;" glyph-name="document-text5" d="M674.121 865.686c-17.493 17.493-47.787 5.547-47.787-18.773v-148.907c0-62.293 52.907-113.92 117.333-113.92 40.533-0.427 96.853-0.427 145.067-0.427 24.32 0 37.12 28.587 20.053 45.653-61.44 61.867-171.52 173.227-234.667 236.373zM874.667 525.227h-123.307c-101.12 0-183.467 82.347-183.467 183.467v123.307c0 23.467-19.2 42.667-42.667 42.667h-180.907c-131.413 0-237.653-85.333-237.653-237.653v-378.027c0-152.32 106.24-237.653 237.653-237.653h335.36c131.413 0 237.653 85.333 237.653 237.653v223.573c0 23.467-19.2 42.667-42.667 42.667zM490.667 202.667h-170.667c-17.493 0-32 14.507-32 32s14.507 32 32 32h170.667c17.493 0 32-14.507 32-32s-14.507-32-32-32zM576 373.333h-256c-17.493 0-32 14.507-32 32s14.507 32 32 32h256c17.493 0 32-14.507 32-32s-14.507-32-32-32z" />

<glyph unicode="&#xebcc;" glyph-name="search-normal-1" d="M490.667 32c-241.067 0-437.333 196.267-437.333 437.333s196.267 437.333 437.333 437.333c241.067 0 437.333-196.267 437.333-437.333s-196.267-437.333-437.333-437.333zM490.667 842.667c-206.080 0-373.333-167.68-373.333-373.333s167.253-373.333 373.333-373.333c206.080 0 373.333 167.68 373.333 373.333s-167.253 373.333-373.333 373.333zM938.684-10.662c-8.107 0-16.213 2.987-22.613 9.387l-85.333 85.333c-12.373 12.373-12.373 32.853 0 45.227s32.853 12.373 45.227 0l85.333-85.333c12.373-12.373 12.373-32.853 0-45.227-6.4-6.4-14.507-9.387-22.613-9.387z" />

<glyph unicode="&#xe9ea;" glyph-name="copy" d="M473.6-10.667h-179.2c-166.827 0-241.067 74.24-241.067 241.067v179.2c0 166.827 74.24 241.067 241.067 241.067h179.2c166.827 0 241.067-74.24 241.067-241.067v-179.2c0-166.827-74.24-241.067-241.067-241.067zM294.4 586.667c-132.267 0-177.067-44.8-177.067-177.067v-179.2c0-132.267 44.8-177.067 177.067-177.067h179.2c132.267 0 177.067 44.8 177.067 177.067v179.2c0 132.267-44.8 177.067-177.067 177.067h-179.2zM729.6 245.333h-46.933c-17.493 0-32 14.507-32 32v132.267c0 132.267-44.8 177.067-177.067 177.067h-132.267c-17.493 0-32 14.507-32 32v46.933c0 166.827 74.24 241.067 241.067 241.067h179.2c166.827 0 241.067-74.24 241.067-241.067v-179.2c0-166.827-74.24-241.067-241.067-241.067zM714.667 309.333h14.933c132.267 0 177.067 44.8 177.067 177.067v179.2c0 132.267-44.8 177.067-177.067 177.067h-179.2c-132.267 0-177.067-44.8-177.067-177.067v-14.933h100.267c166.827 0 241.067-74.24 241.067-241.067v-100.267z" />

<glyph unicode="&#xea34;" glyph-name="element-4" d="M843.52 373.333h-172.373c-85.76 0-127.147 39.68-127.147 121.6v290.133c0 81.92 41.813 121.6 127.147 121.6h172.373c85.76 0 127.147-39.68 127.147-121.6v-290.133c0-81.92-41.813-121.6-127.147-121.6zM671.147 842.667c-54.187 0-63.147-14.507-63.147-57.6v-290.133c0-43.093 8.96-57.6 63.147-57.6h172.373c54.187 0 63.147 14.507 63.147 57.6v290.133c0 43.093-8.96 57.6-63.147 57.6h-172.373zM843.52-10.667h-172.373c-85.76 0-127.147 39.68-127.147 121.6v76.8c0 81.92 41.813 121.6 127.147 121.6h172.373c85.76 0 127.147-39.68 127.147-121.6v-76.8c0-81.92-41.813-121.6-127.147-121.6zM671.147 245.333c-54.187 0-63.147-14.507-63.147-57.6v-76.8c0-43.093 8.96-57.6 63.147-57.6h172.373c54.187 0 63.147 14.507 63.147 57.6v76.8c0 43.093-8.96 57.6-63.147 57.6h-172.373zM352.853-10.667h-172.373c-85.76 0-127.147 39.68-127.147 121.6v290.133c0 81.92 41.813 121.6 127.147 121.6h172.373c85.76 0 127.147-39.68 127.147-121.6v-290.133c0-81.92-41.813-121.6-127.147-121.6zM180.48 458.667c-54.187 0-63.147-14.507-63.147-57.6v-290.133c0-43.093 8.96-57.6 63.147-57.6h172.373c54.187 0 63.147 14.507 63.147 57.6v290.133c0 43.093-8.96 57.6-63.147 57.6h-172.373zM352.853 586.667h-172.373c-85.76 0-127.147 39.68-127.147 121.6v76.8c0 81.92 41.813 121.6 127.147 121.6h172.373c85.76 0 127.147-39.68 127.147-121.6v-76.8c0-81.92-41.813-121.6-127.147-121.6zM180.48 842.667c-54.187 0-63.147-14.507-63.147-57.6v-76.8c0-43.093 8.96-57.6 63.147-57.6h172.373c54.187 0 63.147 14.507 63.147 57.6v76.8c0 43.093-8.96 57.6-63.147 57.6h-172.373z" />

<glyph unicode="&#xe940;" glyph-name="arrow-up-2" d="M849.899 285.862c-8.107 0-16.213 2.987-22.613 9.387l-278.187 278.188c-20.48 20.48-53.76 20.48-74.24 0l-278.185-278.188c-12.373-12.373-32.853-12.373-45.227 0s-12.373 32.853 0 45.227l278.185 278.188c45.227 45.227 119.040 45.227 164.693 0l278.187-278.188c12.373-12.373 12.373-32.853 0-45.227-6.4-5.973-14.507-9.387-22.613-9.387z" />
<glyph unicode="&#xe975;" glyph-name="box-tick" d="M810.709-10.662c-69.12 0-134.4 35.84-171.093 94.72-19.627 30.293-30.72 66.56-31.573 103.68-1.28 62.293 25.178 120.32 72.538 159.573 35.413 29.44 79.787 46.080 125.44 47.36 55.467 0.427 105.382-18.773 144.636-56.32s61.44-87.893 62.293-142.080c0.853-37.12-8.533-73.387-27.307-105.387-10.24-17.92-23.467-34.56-39.253-48.64-34.987-32.853-81.92-52.053-131.84-52.907-0.853 0-2.133 0-3.84 0zM810.709 330.671c-0.853 0-2.133 0-2.987 0-31.573-0.853-61.44-11.947-86.187-32.427-32.427-26.88-50.347-66.56-49.493-109.227 0.427-25.173 8.107-49.92 21.333-70.827 26.027-41.813 71.253-67.413 119.893-64.853 33.707 0.853 65.711 13.653 90.031 36.267 11.093 9.813 20.049 20.907 26.876 32.853 12.8 22.187 19.2 46.933 18.773 72.107-0.853 37.12-15.787 71.68-42.667 97.28-25.6 25.173-59.733 38.827-95.573 38.827zM787.153 117.338c-8.107 0-15.787 2.987-22.187 8.96l-43.093 40.96c-12.8 12.373-13.227 32.427-0.853 45.227s32.427 13.227 45.227 0.853l20.907-20.053 66.987 64.853c12.8 12.373 32.853 11.947 45.227-0.853s11.947-32.858-0.853-45.231l-89.173-86.182c-6.4-5.547-14.507-8.533-22.187-8.533zM511.974 392.538c-5.547 0-11.093 1.28-16.213 4.267l-376.748 218.027c-15.36 8.96-20.481 28.588-11.521 43.948s28.588 20.481 43.521 11.521l360.531-208.642 358.404 207.361c15.36 8.96 34.987 3.412 43.52-11.521 8.96-15.36 3.413-34.985-11.52-43.945l-374.187-216.748c-4.693-2.56-10.24-4.267-15.787-4.267zM512 5.982c-17.493 0-32 14.507-32 32v386.987c0 17.493 14.507 32 32 32s32-14.507 32-32v-386.987c0-17.493-14.507-32-32-32zM511.953-10.662c-37.547 0-75.093 8.107-104.107 24.747l-227.84 126.293c-61.867 34.133-110.506 116.48-110.506 187.307v241.493c0 70.827 48.64 152.745 110.506 187.305l227.84 126.294c58.027 32.853 149.333 32.853 207.787 0l227.84-126.294c61.867-34.133 110.507-116.478 110.507-187.305v-241.493c0-4.267 0-7.68-0.853-11.947-2.133-11.093-10.24-20.48-20.907-23.893-10.667-3.84-22.613-1.28-31.573 5.973-49.067 42.667-125.013 44.373-176.64 2.987-32.853-26.027-52.053-65.707-52.053-107.947 0-25.173 6.827-49.92 20.053-71.253 3.413-5.973 6.827-10.667 10.667-15.36 6.4-7.253 8.96-17.067 7.253-26.453s-7.68-17.493-16.213-22.187l-78.080-43.093c-29.013-17.067-66.133-25.173-103.68-25.173zM511.953 842.67c-26.453 0-53.333-5.547-72.533-16.214l-227.84-126.294c-41.387-22.613-77.226-84.051-77.226-130.985v-241.493c0-46.933 36.266-108.373 77.226-130.987l227.84-126.293c38.827-21.76 106.667-21.76 145.493 0l47.787 26.453c-15.787 28.587-24.32 61.867-24.32 96 0 62.293 27.733 119.893 75.947 158.293 58.027 46.507 140.8 56.32 206.080 28.587v190.292c0 46.933-36.267 108.374-77.227 130.987l-227.84 126.294c-20.053 9.813-46.933 15.36-73.387 15.36z" />

<glyph unicode="&#x30e;" glyph-name="arrow-circle-left5" d="M512 874.667c-235.093 0-426.667-191.573-426.667-426.667s191.573-426.667 426.667-426.667c235.093 0 426.667 191.573 426.667 426.667s-191.573 426.667-426.667 426.667zM588.373 320c12.373-12.373 12.373-32.853 0-45.227-6.4-6.4-14.507-9.387-22.613-9.387s-16.213 2.987-22.613 9.387l-150.613 150.613c-12.373 12.373-12.373 32.853 0 45.227l150.613 150.613c12.373 12.373 32.853 12.373 45.227 0s12.373-32.853 0-45.227l-128-128 128-128z" />
<glyph unicode="&#xebe0;" glyph-name="setting-4" d="M938.667 650.667h-256c-17.493 0-32 14.507-32 32s14.507 32 32 32h256c17.493 0 32-14.507 32-32s-14.507-32-32-32zM256 650.667h-170.667c-17.493 0-32 14.507-32 32s14.507 32 32 32h170.667c17.493 0 32-14.507 32-32s-14.507-32-32-32zM426.667 501.333c-99.84 0-181.333 81.493-181.333 181.333s81.493 181.333 181.333 181.333c99.84 0 181.333-81.493 181.333-181.333s-81.493-181.333-181.333-181.333zM426.667 800c-64.853 0-117.333-52.48-117.333-117.333s52.48-117.333 117.333-117.333c64.853 0 117.333 52.48 117.333 117.333s-52.48 117.333-117.333 117.333zM938.667 181.333h-170.667c-17.493 0-32 14.507-32 32s14.507 32 32 32h170.667c17.493 0 32-14.507 32-32s-14.507-32-32-32zM341.333 181.333h-256c-17.493 0-32 14.507-32 32s14.507 32 32 32h256c17.493 0 32-14.507 32-32s-14.507-32-32-32zM597.333 32c-99.84 0-181.333 81.493-181.333 181.333s81.493 181.333 181.333 181.333c99.84 0 181.333-81.493 181.333-181.333s-81.493-181.333-181.333-181.333zM597.333 330.667c-64.853 0-117.333-52.48-117.333-117.333s52.48-117.333 117.333-117.333c64.853 0 117.333 52.48 117.333 117.333s-52.48 117.333-117.333 117.333z" />
<glyph unicode="&#xea32;" glyph-name="element-2" d="M352.853-10.667h-172.373c-85.76 0-127.147 39.68-127.147 121.6v674.133c0 81.92 41.813 121.6 127.147 121.6h172.373c85.76 0 127.147-39.68 127.147-121.6v-674.133c0-81.92-41.813-121.6-127.147-121.6zM180.48 842.667c-54.187 0-63.147-14.507-63.147-57.6v-674.133c0-43.093 8.96-57.6 63.147-57.6h172.373c54.187 0 63.147 14.507 63.147 57.6v674.133c0 43.093-8.96 57.6-63.147 57.6h-172.373zM843.52 373.333h-172.373c-85.76 0-127.147 39.68-127.147 121.6v290.133c0 81.92 41.813 121.6 127.147 121.6h172.373c85.76 0 127.147-39.68 127.147-121.6v-290.133c0-81.92-41.813-121.6-127.147-121.6zM671.147 842.667c-54.187 0-63.147-14.507-63.147-57.6v-290.133c0-43.093 8.96-57.6 63.147-57.6h172.373c54.187 0 63.147 14.507 63.147 57.6v290.133c0 43.093-8.96 57.6-63.147 57.6h-172.373zM843.52-10.667h-172.373c-85.76 0-127.147 39.68-127.147 121.6v76.8c0 81.92 41.813 121.6 127.147 121.6h172.373c85.76 0 127.147-39.68 127.147-121.6v-76.8c0-81.92-41.813-121.6-127.147-121.6zM671.147 245.333c-54.187 0-63.147-14.507-63.147-57.6v-76.8c0-43.093 8.96-57.6 63.147-57.6h172.373c54.187 0 63.147 14.507 63.147 57.6v76.8c0 43.093-8.96 57.6-63.147 57.6h-172.373z" />

<glyph unicode="&#x3ad;" glyph-name="close-circle5" d="M512 874.667c-235.093 0-426.667-191.573-426.667-426.667s191.573-426.667 426.667-426.667c235.093 0 426.667 191.573 426.667 426.667s-191.573 426.667-426.667 426.667zM655.36 349.867c12.373-12.373 12.373-32.853 0-45.227-6.4-6.4-14.507-9.387-22.613-9.387s-16.213 2.987-22.613 9.387l-98.133 98.133-98.133-98.133c-6.4-6.4-14.507-9.387-22.613-9.387s-16.213 2.987-22.613 9.387c-12.373 12.373-12.373 32.853 0 45.227l98.133 98.133-98.133 98.133c-12.373 12.373-12.373 32.853 0 45.227s32.853 12.373 45.227 0l98.133-98.133 98.133 98.133c12.373 12.373 32.853 12.373 45.227 0s12.373-32.853 0-45.227l-98.133-98.133 98.133-98.133z" />
<glyph unicode="&#xebcb;" glyph-name="search-normal" d="M469.333 74.667c-229.547 0-416 186.453-416 416s186.453 416 416 416c229.547 0 416-186.453 416-416s-186.453-416-416-416zM469.333 842.667c-194.133 0-352-157.867-352-352s157.867-352 352-352c194.133 0 352 157.867 352 352s-157.867 352-352 352zM860.164-12.373c-3.413 0-6.827 0.427-9.813 0.853-20.053 2.56-56.32 16.213-76.8 77.227-10.667 32-6.827 64 10.667 88.32s46.933 37.973 80.64 37.973c43.52 0 77.653-16.64 93.013-46.080s11.093-66.987-13.227-103.253c-30.293-45.653-63.147-55.040-84.48-55.040zM834.564 85.76c7.253-22.187 17.493-33.28 24.32-34.133s19.627 7.253 32.853 26.453c12.373 18.347 13.227 31.573 10.24 37.547s-14.933 12.373-37.12 12.373c-13.227 0-23.040-4.267-28.587-11.52-5.12-7.253-5.973-18.347-1.707-30.72z" />
<glyph unicode="&#xe990;" glyph-name="calendar-1" d="M341.333 714.667c-17.493 0-32 14.507-32 32v128c0 17.493 14.507 32 32 32s32-14.507 32-32v-128c0-17.493-14.507-32-32-32zM682.667 714.667c-17.493 0-32 14.507-32 32v128c0 17.493 14.507 32 32 32s32-14.507 32-32v-128c0-17.493-14.507-32-32-32zM362.667 341.329c-5.547 0-11.093 1.28-16.213 3.413-5.547 2.133-9.813 5.12-14.080 8.96-7.68 8.107-12.373 18.773-12.373 30.293 0 5.547 1.28 11.093 3.413 16.213s5.12 9.813 8.96 14.080c4.267 3.84 8.533 6.827 14.080 8.96 15.36 6.4 34.56 2.987 46.507-8.96 7.68-8.107 12.373-19.2 12.373-30.293 0-2.56-0.427-5.547-0.853-8.533-0.427-2.56-1.28-5.12-2.56-7.68-0.853-2.56-2.133-5.12-3.84-7.68-1.28-2.133-3.413-4.267-5.12-6.4-8.107-7.68-19.2-12.373-30.293-12.373zM512 341.338c-5.547 0-11.093 1.28-16.213 3.413-5.547 2.133-9.813 5.12-14.080 8.96-7.68 8.107-12.373 18.773-12.373 30.293 0 5.547 1.28 11.093 3.413 16.213s5.12 9.813 8.96 14.080c4.267 3.84 8.533 6.827 14.080 8.96 15.36 6.827 34.56 2.987 46.507-8.96 7.68-8.107 12.373-19.2 12.373-30.293 0-2.56-0.427-5.547-0.853-8.533-0.427-2.56-1.28-5.12-2.56-7.68-0.853-2.56-2.133-5.12-3.84-7.68-1.28-2.133-3.413-4.267-5.12-6.4-8.107-7.68-19.2-12.373-30.293-12.373zM661.333 341.338c-5.547 0-11.093 1.28-16.213 3.413-5.547 2.133-9.813 5.12-14.080 8.96-1.707 2.133-3.413 4.267-5.12 6.4-1.707 2.56-2.987 5.12-3.84 7.68-1.28 2.56-2.133 5.12-2.56 7.68-0.427 2.987-0.853 5.973-0.853 8.533 0 11.093 4.693 22.187 12.373 30.293 4.267 3.84 8.533 6.827 14.080 8.96 15.787 6.827 34.56 2.987 46.507-8.96 7.68-8.107 12.373-19.2 12.373-30.293 0-2.56-0.427-5.547-0.853-8.533-0.427-2.56-1.28-5.12-2.56-7.68-0.853-2.56-2.133-5.12-3.84-7.68-1.28-2.133-3.413-4.267-5.12-6.4-8.107-7.68-19.2-12.373-30.293-12.373zM362.667 192.004c-5.547 0-11.093 1.276-16.213 3.409s-9.813 5.124-14.080 8.964c-7.68 8.107-12.373 19.2-12.373 30.293 0 5.547 1.28 11.093 3.413 16.213 2.133 5.547 5.12 10.236 8.96 14.076 15.787 15.787 44.8 15.787 60.587 0 7.68-8.107 12.373-19.196 12.373-30.289s-4.693-22.187-12.373-30.293c-8.107-7.68-19.2-12.373-30.293-12.373zM512 192.004c-11.093 0-22.187 4.693-30.293 12.373-7.68 8.107-12.373 19.2-12.373 30.293 0 5.547 1.28 11.093 3.413 16.213 2.133 5.547 5.12 10.236 8.96 14.076 15.787 15.787 44.8 15.787 60.587 0 3.84-3.84 6.827-8.529 8.96-14.076 2.133-5.12 3.413-10.667 3.413-16.213 0-11.093-4.693-22.187-12.373-30.293-8.107-7.68-19.2-12.373-30.293-12.373zM661.333 192.004c-11.093 0-22.187 4.693-30.293 12.373-3.84 3.84-6.827 8.533-8.96 14.080-2.133 5.12-3.413 10.667-3.413 16.213s1.28 11.093 3.413 16.213c2.133 5.547 5.12 10.24 8.96 14.080 9.813 9.813 24.747 14.507 38.4 11.52 2.987-0.427 5.547-1.28 8.107-2.56 2.56-0.853 5.12-2.133 7.68-3.84 2.133-1.28 4.267-3.413 6.4-5.12 7.68-8.107 12.373-19.2 12.373-30.293s-4.693-22.187-12.373-30.293c-8.107-7.68-19.2-12.373-30.293-12.373zM874.667 540.167h-725.333c-17.493 0-32 14.507-32 32s14.507 32 32 32h725.333c17.493 0 32-14.507 32-32s-14.507-32-32-32zM682.667-10.667h-341.333c-155.733 0-245.333 89.6-245.333 245.333v362.667c0 155.733 89.6 245.333 245.333 245.333h341.333c155.733 0 245.333-89.6 245.333-245.333v-362.667c0-155.733-89.6-245.333-245.333-245.333zM341.333 778.667c-122.027 0-181.333-59.307-181.333-181.333v-362.667c0-122.027 59.307-181.333 181.333-181.333h341.333c122.027 0 181.333 59.307 181.333 181.333v362.667c0 122.027-59.307 181.333-181.333 181.333h-341.333z" />
<glyph unicode="&#x30f;" glyph-name="arrow-circle-right5" d="M512 874.667c-235.093 0-426.667-191.573-426.667-426.667s191.573-426.667 426.667-426.667c235.093 0 426.667 191.573 426.667 426.667s-191.573 426.667-426.667 426.667zM631.040 425.387l-150.613-150.613c-6.4-6.4-14.507-9.387-22.613-9.387s-16.213 2.987-22.613 9.387c-12.373 12.373-12.373 32.853 0 45.227l128 128-128 128c-12.373 12.373-12.373 32.853 0 45.227s32.853 12.373 45.227 0l150.613-150.613c12.8-12.373 12.8-32.853 0-45.227z" />

<glyph unicode="&#xec05;" glyph-name="sms" d="M725.333 53.333h-426.667c-155.733 0-245.333 89.6-245.333 245.333v298.667c0 155.733 89.6 245.333 245.333 245.333h426.667c155.733 0 245.333-89.6 245.333-245.333v-298.667c0-155.733-89.6-245.333-245.333-245.333zM298.667 778.667c-122.027 0-181.333-59.307-181.333-181.333v-298.667c0-122.027 59.307-181.333 181.333-181.333h426.667c122.027 0 181.333 59.307 181.333 181.333v298.667c0 122.027-59.307 181.333-181.333 181.333h-426.667zM511.949 410.88c-35.84 0-72.107 11.093-99.84 33.707l-133.547 106.668c-13.653 11.093-16.213 31.147-5.12 44.8s31.147 16.213 44.8 5.12l133.546-106.668c32.427-26.027 87.467-26.027 119.893 0l133.547 106.668c13.653 11.093 34.133 8.96 44.8-5.12 11.093-13.653 8.96-34.133-5.12-44.8l-133.547-106.668c-27.307-22.613-63.573-33.707-99.413-33.707z" />
<glyph unicode="&#xe99a;" glyph-name="call-calling" d="M744.533-10.667c-48.213 0-98.987 11.52-151.467 33.707-51.2 21.76-102.827 51.627-153.173 87.893-49.92 36.693-98.133 77.653-143.787 122.453-45.227 45.653-86.187 93.867-122.453 143.36-36.693 51.2-66.133 102.4-87.040 151.893-22.187 52.907-33.28 104.107-33.28 152.32 0 33.28 5.973 64.853 17.493 94.293 11.947 30.293 31.147 58.453 57.173 82.773 32.853 32.427 70.4 48.64 110.507 48.64 16.64 0 33.707-3.84 48.213-10.667 16.64-7.68 30.72-19.2 40.96-34.56l98.987-139.52c8.96-12.373 15.787-24.32 20.48-36.267 5.547-12.8 8.533-25.6 8.533-37.973 0-16.213-4.693-32-13.653-46.933-6.4-11.52-16.213-23.893-28.587-36.267l-29.013-30.293c0.427-1.28 0.853-2.133 1.28-2.987 5.12-8.96 15.36-24.32 34.987-47.36 20.907-23.893 40.533-45.653 60.16-65.707 25.173-24.747 46.080-44.373 65.707-60.587 24.32-20.48 40.107-30.72 49.493-35.413l-0.853-2.133 31.147 30.72c13.227 13.227 26.027 23.040 38.4 29.44 23.467 14.507 53.333 17.067 83.2 4.693 11.093-4.693 23.040-11.093 35.84-20.053l141.653-100.693c15.787-10.667 27.307-24.32 34.133-40.533 6.4-16.213 9.387-31.147 9.387-46.080 0-20.48-4.693-40.96-13.653-60.16s-20.053-35.84-34.133-51.2c-24.32-26.88-50.773-46.080-81.493-58.453-29.44-11.947-61.44-18.347-95.147-18.347zM238.507 842.667c-23.467 0-45.227-10.24-66.133-30.72-19.627-18.347-33.28-38.4-41.813-60.16-8.96-22.187-13.227-45.653-13.227-70.827 0-39.68 9.387-82.773 28.16-127.147 19.2-45.227 46.080-92.16 80.213-139.093s72.96-92.587 115.627-135.68c42.667-42.24 88.747-81.493 136.107-116.053 46.080-33.707 93.44-61.013 140.373-80.64 72.96-31.147 141.227-38.4 197.547-14.933 21.76 8.96 40.96 22.613 58.453 42.24 9.813 10.667 17.493 22.187 23.893 35.84 5.12 10.667 7.68 21.76 7.68 32.853 0 6.827-1.28 13.653-4.693 21.333-1.28 2.56-3.84 7.253-11.947 12.8l-141.653 100.693c-8.533 5.973-16.213 10.24-23.467 13.227-9.387 3.84-13.227 7.68-27.733-1.28-8.533-4.267-16.213-10.667-24.747-19.2l-32.427-32c-16.64-16.213-42.24-20.053-61.867-12.8l-11.52 5.12c-17.493 9.387-37.973 23.893-60.587 43.093-20.48 17.493-42.667 37.973-69.547 64.427-20.907 21.333-41.813 43.947-63.573 69.12-20.053 23.467-34.56 43.52-43.52 60.16l-5.12 12.8c-2.56 9.813-3.413 15.36-3.413 21.333 0 15.36 5.547 29.013 16.213 39.68l32 33.28c8.533 8.533 14.933 16.64 19.2 23.893 3.413 5.547 4.693 10.24 4.693 14.507 0 3.413-1.28 8.533-3.413 13.653-2.987 6.827-7.68 14.507-13.653 22.613l-98.987 139.947c-4.267 5.973-9.387 10.24-15.787 13.227-6.827 2.987-14.080 4.693-21.333 4.693zM595.2 319.573l-6.827-29.013 11.52 29.867c-2.133 0.427-3.84 0-4.693-0.853zM789.333 544c-17.493 0-32 14.507-32 32 0 15.36-15.36 47.36-40.96 74.667-25.173 26.88-52.907 42.667-76.373 42.667-17.493 0-32 14.507-32 32s14.507 32 32 32c41.387 0 84.907-22.187 122.88-62.72 35.413-37.973 58.453-84.48 58.453-118.613 0-17.493-14.507-32-32-32zM938.667 544c-17.493 0-32 14.507-32 32 0 147.2-119.467 266.667-266.667 266.667-17.493 0-32 14.507-32 32s14.507 32 32 32c182.187 0 330.667-148.48 330.667-330.667 0-17.493-14.507-32-32-32z" />
<glyph unicode="&#x610;" glyph-name="tick-circle5" d="M512 874.667c-235.093 0-426.667-191.573-426.667-426.667s191.573-426.667 426.667-426.667c235.093 0 426.667 191.573 426.667 426.667s-191.573 426.667-426.667 426.667zM715.947 546.133l-241.92-241.92c-5.973-5.973-14.080-9.387-22.613-9.387s-16.64 3.413-22.613 9.387l-120.747 120.747c-12.373 12.373-12.373 32.853 0 45.227s32.853 12.373 45.227 0l98.133-98.133 219.307 219.307c12.373 12.373 32.853 12.373 45.227 0s12.373-32.427 0-45.227z" />
<glyph unicode="&#xeae9;" glyph-name="logout" d="M650.261 9.813h-5.547c-189.44 0-280.747 74.667-296.533 241.92-1.707 17.493 11.093 33.28 29.013 34.987 17.067 1.707 33.28-11.52 34.987-29.013 12.373-133.973 75.52-183.893 232.96-183.893h5.547c173.653 0 235.093 61.44 235.093 235.093v278.188c0 173.653-61.44 235.093-235.093 235.093h-5.547c-158.293 0-221.44-50.773-232.96-187.307-2.133-17.493-17.067-30.72-34.987-29.013-17.92 1.28-30.72 17.067-29.44 34.56 14.507 169.813 106.24 245.76 296.96 245.76h5.547c209.493 0 299.093-89.6 299.093-299.093v-278.188c0-209.493-89.6-299.093-299.093-299.093zM639.962 416h-485.545c-17.493 0-32 14.507-32 32s14.507 32 32 32h485.545c17.493 0 32-14.507 32-32s-14.507-32-32-32zM249.577 273.062c-8.107 0-16.213 2.987-22.613 9.387l-142.933 142.933c-12.373 12.373-12.373 32.853 0 45.227l142.933 142.934c12.373 12.373 32.853 12.373 45.227 0s12.373-32.853 0-45.227l-120.32-120.32 120.32-120.32c12.373-12.373 12.373-32.853 0-45.227-5.973-6.4-14.507-9.387-22.613-9.387z" />
<glyph unicode="&#xe921;" glyph-name="arrange-circle-2" d="M602.061 208.64c-8.107 0-16.213 2.987-22.613 9.387-12.373 12.373-12.373 32.853 0 45.227l129.707 129.707c12.373 12.373 32.853 12.373 45.227 0s12.373-32.853 0-45.227l-129.707-129.707c-5.973-5.973-14.080-9.387-22.613-9.387zM731.725 338.342h-439.892c-17.493 0-32 14.507-32 32s14.507 32 32 32h439.892c17.493 0 32-14.507 32-32s-14.080-32-32-32zM292.227 493.649c-8.107 0-16.213 2.987-22.613 9.387-12.373 12.373-12.373 32.854 0 45.227l129.706 129.707c12.373 12.373 32.856 12.373 45.229 0s12.373-32.855 0-45.228l-129.708-129.706c-6.4-6.4-14.507-9.387-22.613-9.387zM731.725 493.658h-439.892c-17.493 0-32 14.507-32 32s14.507 31.999 32 31.999h439.892c17.493 0 32-14.507 32-31.999s-14.080-32-32-32zM512-10.667c-253.013 0-458.667 205.653-458.667 458.667s205.653 458.667 458.667 458.667c253.013 0 458.667-205.653 458.667-458.667s-205.653-458.667-458.667-458.667zM512 842.667c-217.6 0-394.667-177.067-394.667-394.667s177.067-394.667 394.667-394.667c217.6 0 394.667 177.067 394.667 394.667s-177.067 394.667-394.667 394.667z" />
<glyph unicode="&#xea29;" glyph-name="dollar-circle" d="M571.742 216.742h-107.093c-69.975 0-126.722 58.88-126.722 131.413 0 17.493 14.507 32 32 32s32-14.507 32-32c0-37.12 28.162-67.413 62.722-67.413h107.093c27.733 0 50.773 24.747 50.773 54.613 0 37.12-13.227 44.373-34.987 52.053l-171.948 60.587c-33.28 11.52-78.080 36.267-78.080 112.641 0 65.707 51.627 118.613 114.775 118.613h107.093c69.973 0 126.72-58.88 126.72-131.413 0-17.494-14.507-32.001-32-32.001s-32 14.507-32 32.001c0 37.12-28.16 67.413-62.72 67.413h-107.093c-27.735 0-50.775-24.747-50.775-54.613 0-37.121 13.227-44.374 34.988-52.054l171.947-60.587c33.28-11.52 78.080-36.267 78.080-112.64-0.427-65.28-51.627-118.613-114.773-118.613zM512 160c-17.493 0-32 14.507-32 32v512c0 17.493 14.507 32 32 32s32-14.507 32-32v-512c0-17.493-14.507-32-32-32zM512-10.667c-253.013 0-458.667 205.653-458.667 458.667s205.653 458.667 458.667 458.667c253.013 0 458.667-205.653 458.667-458.667s-205.653-458.667-458.667-458.667zM512 842.667c-217.6 0-394.667-177.067-394.667-394.667s177.067-394.667 394.667-394.667c217.6 0 394.667 177.067 394.667 394.667s-177.067 394.667-394.667 394.667z" />
<glyph unicode="&#xe96f;" glyph-name="box" d="M511.974 392.538c-5.547 0-11.093 1.28-16.213 4.267l-376.748 218.027c-15.36 8.96-20.481 28.588-11.521 43.948s28.16 20.481 43.947 11.521l360.536-208.642 358.396 207.361c15.36 8.96 34.987 3.412 43.947-11.521 8.96-15.36 3.418-34.985-11.516-43.945l-374.187-216.748c-5.547-2.56-11.093-4.267-16.64-4.267zM512 5.973c-17.493 0-32 14.507-32 32v386.987c0 17.493 14.507 32 32 32s32-14.507 32-32v-386.987c0-17.493-14.507-32-32-32zM512.026-10.667c-37.547 0-74.667 8.107-104.106 24.32l-227.84 126.72c-61.867 34.133-110.080 116.48-110.080 187.307v241.068c0 70.827 48.213 152.745 110.080 187.305l227.84 126.294c58.453 32.427 149.76 32.427 208.213 0l227.84-126.719c61.867-34.133 110.080-116.481 110.080-187.308v-241.067c0-70.827-48.213-152.747-110.080-187.307l-227.84-126.293c-29.44-16.213-66.56-24.32-104.107-24.32zM512.026 842.667c-26.88 0-53.333-5.547-72.96-16.214l-227.839-126.719c-40.96-23.040-77.227-84.054-77.227-131.414v-241.067c0-46.933 36.267-108.373 77.227-131.413l227.839-126.72c38.827-21.76 107.093-21.76 145.92 0l227.84 126.72c40.96 23.040 77.227 84.053 77.227 131.413v241.067c0 46.933-36.267 108.374-77.227 131.414l-227.84 126.719c-19.627 10.667-46.080 16.214-72.96 16.214zM725.385 363.093c-17.493 0-32 14.507-32 32v137.382l-389.122 224.428c-15.36 8.96-20.481 28.588-11.521 43.521 8.96 15.36 28.161 20.481 43.521 11.521l404.908-233.815c9.813-5.547 16.213-16.212 16.213-27.732v-156.163c0-16.64-14.507-31.142-32-31.142z" />
<glyph unicode="&#xebde;" glyph-name="setting-2" d="M512 288c-88.32 0-160 71.68-160 160s71.68 160 160 160c88.32 0 160-71.68 160-160s-71.68-160-160-160zM512 544c-52.907 0-96-43.093-96-96s43.093-96 96-96c52.907 0 96 43.093 96 96s-43.093 96-96 96zM648.96 13.235c-8.96 0-17.92 1.28-26.88 3.413-26.453 7.253-48.64 23.893-62.72 47.36l-5.12 8.533c-25.173 43.52-59.733 43.52-84.907 0l-4.693-8.107c-14.080-23.893-36.267-40.96-62.72-47.787-26.88-7.253-54.613-3.413-78.080 10.667l-73.387 42.24c-26.027 14.933-44.8 39.253-52.907 68.693-7.68 29.44-3.84 59.733 11.093 85.76 12.373 21.76 15.787 41.387 8.533 53.76s-25.6 19.627-50.773 19.627c-62.293 0-113.067 50.773-113.067 113.067v75.093c0 62.293 50.773 113.067 113.067 113.067 25.173 0 43.52 7.253 50.773 19.627s4.267 32-8.533 53.76c-14.933 26.027-18.773 56.747-11.093 85.76 7.68 29.44 26.453 53.76 52.907 68.693l73.813 42.24c48.213 28.587 111.787 11.947 140.8-37.12l5.12-8.533c25.173-43.52 59.733-43.52 84.907 0l4.693 8.107c29.013 49.493 92.587 66.133 141.227 37.12l73.387-42.24c26.027-14.933 44.8-39.253 52.907-68.693 7.68-29.44 3.84-59.733-11.093-85.76-12.373-21.76-15.787-41.387-8.533-53.76s25.6-19.627 50.773-19.627c62.293 0 113.067-50.773 113.067-113.067v-75.093c0-62.293-50.773-113.067-113.067-113.067-25.173 0-43.52-7.253-50.773-19.627s-4.267-32 8.533-53.76c14.933-26.027 19.2-56.747 11.093-85.76-7.68-29.44-26.453-53.76-52.907-68.693l-73.813-42.24c-16.213-8.96-33.707-13.653-51.627-13.653zM512 171.102c37.973 0 73.387-23.893 97.707-66.133l4.693-8.107c5.12-8.96 13.653-15.36 23.893-17.92s20.48-1.28 29.013 3.84l73.813 42.667c11.093 6.4 19.627 17.067 23.040 29.867s1.707 26.027-4.693 37.12c-24.32 41.813-27.307 84.907-8.533 117.76s57.6 51.627 106.24 51.627c27.307 0 49.067 21.76 49.067 49.067v75.093c0 26.88-21.76 49.067-49.067 49.067-48.64 0-87.467 18.773-106.24 51.627s-15.787 75.947 8.533 117.76c6.4 11.093 8.107 24.32 4.693 37.12s-11.52 23.040-22.613 29.867l-73.813 42.24c-18.347 11.093-42.667 4.693-53.76-14.080l-4.693-8.107c-24.32-42.24-59.733-66.133-97.707-66.133s-73.387 23.893-97.707 66.133l-4.693 8.533c-10.667 17.92-34.56 24.32-52.907 13.653l-73.813-42.667c-11.093-6.4-19.627-17.067-23.040-29.867s-1.707-26.027 4.693-37.12c24.32-41.813 27.307-84.907 8.533-117.76s-57.6-51.627-106.24-51.627c-27.307 0-49.067-21.76-49.067-49.067v-75.093c0-26.88 21.76-49.067 49.067-49.067 48.64 0 87.467-18.773 106.24-51.627s15.787-75.947-8.533-117.76c-6.4-11.093-8.107-24.32-4.693-37.12s11.52-23.040 22.613-29.867l73.813-42.24c8.96-5.547 19.627-6.827 29.44-4.267 10.24 2.56 18.773 9.387 24.32 18.347l4.693 8.107c24.32 41.813 59.733 66.133 97.707 66.133z" />
<glyph unicode="&#x1d8;" glyph-name="profile-2user4" d="M390.85 464.213c-1.28 0-2.133 0-3.413 0-2.133 0.427-5.12 0.427-7.68 0-123.733 3.84-217.173 101.12-217.173 221.013 0 122.027 99.413 221.44 221.44 221.44 122.025 0 221.438-99.413 221.438-221.44-0.427-119.893-94.293-217.173-213.331-221.013-0.427 0-0.853 0-1.28 0zM384.023 842.667c-86.613 0-157.44-70.827-157.44-157.44 0-85.333 66.56-154.027 151.467-157.013 2.56 0.427 8.107 0.427 13.653 0 83.625 3.84 149.331 72.533 149.758 157.013 0 86.613-70.827 157.44-157.438 157.44zM705.724 458.667c-1.28 0-2.56 0-3.84 0.427-17.493-1.707-35.413 10.667-37.12 28.16s8.96 33.28 26.453 35.413c5.12 0.427 10.667 0.427 15.36 0.427 62.293 3.413 110.933 54.613 110.933 117.333 0 64.853-52.48 117.333-117.333 117.333-17.493-0.427-32 14.080-32 31.573s14.507 32 32 32c99.84 0 181.333-81.493 181.333-181.333 0-98.133-76.8-177.493-174.507-181.333-0.427 0-0.853 0-1.28 0zM391.237-2.133c-83.627 0-167.68 21.333-231.253 64-59.307 39.253-91.733 93.013-91.733 151.467s32.427 112.64 91.733 152.32c128 84.907 335.36 84.907 462.506 0 58.88-39.253 91.733-93.013 91.733-151.467s-32.427-112.64-91.733-152.32c-64-42.667-147.627-64-231.253-64zM195.397 311.893c-40.96-27.307-63.147-62.293-63.147-98.987 0-36.267 22.613-71.253 63.147-98.133 106.24-71.253 285.44-71.253 391.68 0 40.96 27.307 63.147 62.293 63.147 98.987 0 36.267-22.613 71.253-63.147 98.133-106.24 70.827-285.44 70.827-391.68 0zM782.515 74.667c-14.933 0-28.16 10.24-31.147 25.6-3.413 17.493 7.68 34.133 24.747 37.973 26.88 5.547 51.627 16.213 70.827 31.147 24.32 18.347 37.547 41.387 37.547 65.707s-13.227 47.36-37.12 65.28c-18.773 14.507-42.24 24.747-69.973 31.147-17.067 3.84-28.16 20.907-24.32 38.4 3.84 17.067 20.907 28.16 38.4 24.32 36.693-8.107 68.693-22.613 94.72-42.667 39.68-29.867 62.293-72.107 62.293-116.48s-23.040-86.613-62.72-116.907c-26.453-20.48-59.733-35.413-96.427-42.667-2.56-0.853-4.693-0.853-6.827-0.853z" />
<glyph unicode="&#x1d9;" glyph-name="profile-add4" d="M789.333 96h-170.667c-17.493 0-32 14.507-32 32s14.507 32 32 32h170.667c17.493 0 32-14.507 32-32s-14.507-32-32-32zM704 10.667c-17.493 0-32 14.507-32 32v170.667c0 17.493 14.507 32 32 32s32-14.507 32-32v-170.667c0-17.493-14.507-32-32-32zM518.857 464.213c-1.28 0-2.133 0-3.413 0-2.133 0.427-5.12 0.427-7.68 0-123.734 3.84-217.174 101.12-217.174 221.013-0.427 58.88 22.613 114.347 64.427 156.16s97.281 65.28 156.588 65.28c122.027 0 221.44-99.413 221.44-221.44 0-119.893-93.44-216.747-212.907-221.013-0.427 0-0.853 0-1.28 0zM511.603 842.667c-42.24 0-81.493-16.64-111.361-46.080-29.44-29.867-45.653-69.12-45.653-110.933 0-85.333 66.56-154.453 151.468-157.013 2.56 0.427 8.107 0.427 13.653 0 84.053 3.84 149.333 72.533 149.333 157.013 0 86.187-70.827 157.013-157.44 157.013zM511.582-2.556c-87.042 0-169.388 22.613-231.682 64.427-59.307 39.68-91.733 93.867-91.733 152.32s32.853 112.213 91.733 151.467c127.573 85.333 334.935 85.333 462.508 0 14.507-9.813 18.773-29.867 8.96-44.373-9.813-14.933-29.867-18.773-44.373-8.96-106.24 70.827-285.442 70.827-391.682 0-40.96-27.307-63.147-61.867-63.147-98.133s22.187-71.68 63.147-98.987c51.627-34.56 121.175-53.333 195.842-53.333 17.493 0 32-14.507 32-32s-14.080-32.427-31.573-32.427z" />
<glyph unicode="&#x1da;" glyph-name="profile-circle4" d="M517.141 382.72c-0.853 0-2.133 0-2.987 0-1.28 0-2.987 0-4.267 0-96.855 2.987-169.388 78.507-169.388 171.521 0 94.72 77.227 171.947 171.948 171.947s171.947-77.227 171.947-171.947c-0.427-93.441-73.387-168.534-165.973-171.521-0.853 0-0.853 0-1.28 0zM512.021 662.614c-59.733 0-107.948-48.64-107.948-107.947 0-58.454 45.655-105.814 103.681-107.948 1.28 0.427 5.547 0.427 9.813 0 57.173 2.987 101.973 49.92 102.4 107.948 0 59.307-48.213 107.947-107.947 107.947zM512.034-10.671c-114.773 0-224.426 42.667-309.333 120.32-7.68 6.827-11.093 17.067-10.24 26.88 5.547 50.773 37.12 98.133 89.6 133.12 127.147 84.48 333.226 84.48 459.946 0 52.48-35.413 84.053-82.347 89.6-133.12 1.28-10.24-2.56-20.053-10.24-26.88-84.907-77.653-194.56-120.32-309.333-120.32zM259.448 145.062c70.827-59.307 160-91.733 252.586-91.733s181.76 32.427 252.587 91.733c-7.68 26.027-28.16 51.2-58.453 71.68-104.96 69.973-282.88 69.973-388.693 0-30.293-20.48-50.347-45.653-58.027-71.68zM512-10.667c-253.013 0-458.667 205.653-458.667 458.667s205.653 458.667 458.667 458.667c253.013 0 458.667-205.653 458.667-458.667s-205.653-458.667-458.667-458.667zM512 842.667c-217.6 0-394.667-177.067-394.667-394.667s177.067-394.667 394.667-394.667c217.6 0 394.667 177.067 394.667 394.667s-177.067 394.667-394.667 394.667z" />
<glyph unicode="&#x1db;" glyph-name="profile-delete4" d="M665.143 35.84c-8.107 0-16.213 2.987-22.613 9.387-12.373 12.373-12.373 32.853 0 45.227l120.32 120.32c12.373 12.373 32.853 12.373 45.227 0s12.373-32.853 0-45.227l-120.32-120.32c-6.4-6.4-14.507-9.387-22.613-9.387zM785.463 35.84c-8.107 0-16.213 2.987-22.613 9.387l-120.32 120.32c-12.373 12.373-12.373 32.853 0 45.227s32.853 12.373 45.227 0l120.32-120.32c12.373-12.373 12.373-32.853 0-45.227-6.4-6.4-14.507-9.387-22.613-9.387zM518.848 464.213c-1.28 0-2.133 0-3.413 0-2.133 0.427-5.12 0.427-7.68 0-123.731 3.84-217.171 101.12-217.171 221.013 0 122.027 99.413 221.44 221.438 221.44 122.027 0 221.44-99.413 221.44-221.44-0.427-119.893-94.293-217.173-213.333-221.013-0.427 0-0.853 0-1.28 0zM512.021 842.667c-86.611 0-157.438-70.827-157.438-157.44 0-85.333 66.56-154.027 151.465-157.013 2.56 0.427 8.107 0.427 13.653 0 83.627 3.84 149.333 72.533 149.76 157.013 0 86.613-70.827 157.44-157.44 157.44zM511.996-2.556c-87.039 0-169.386 22.613-231.679 64.427-59.307 39.68-91.733 93.867-91.733 152.32s32.853 112.213 91.733 151.467c127.573 85.333 334.932 85.333 462.506 0 14.507-9.813 18.773-29.867 8.96-44.373-9.813-14.933-29.867-18.773-44.373-8.96-106.24 70.827-285.439 70.827-391.679 0-40.96-27.307-63.147-61.867-63.147-98.133s22.613-71.68 63.147-98.987c51.627-34.56 121.172-53.333 195.839-53.333 17.493 0 32-14.507 32-32s-14.080-32.427-31.573-32.427z" />
<glyph unicode="&#x1dc;" glyph-name="profile-remove4" d="M832 117.333h-170.667c-17.493 0-32 14.507-32 32s14.507 32 32 32h170.667c17.493 0 32-14.507 32-32s-14.507-32-32-32zM518.434 464.213c-1.28 0-2.133 0-3.413 0-2.56 0.427-5.12 0-7.68 0-123.734 3.84-217.174 101.12-217.174 221.013 0 122.027 99.413 221.44 221.441 221.44s221.44-99.413 221.44-221.44c-0.427-119.893-94.293-217.173-213.333-221.013-0.427 0-0.853 0-1.28 0zM511.607 842.667c-86.614 0-157.441-70.827-157.441-157.44 0-85.333 66.56-154.027 151.468-157.013 2.56 0.427 8.107 0.427 13.653 0 83.627 3.84 149.333 72.533 149.76 157.013 0 86.613-70.827 157.44-157.44 157.44zM511.582-2.556c-87.042 0-169.388 22.613-231.682 64.427-59.307 39.68-91.733 93.867-91.733 152.32s32.853 112.213 91.733 151.467c127.573 85.333 334.935 85.333 462.508 0 14.507-9.813 18.773-29.867 8.96-44.373-9.813-14.933-29.867-18.773-44.373-8.96-106.24 70.827-285.442 70.827-391.682 0-40.96-27.307-63.147-61.867-63.147-98.133s22.187-71.68 63.147-98.987c51.627-34.56 121.175-53.333 195.842-53.333 17.493 0 32-14.507 32-32s-14.080-32.427-31.573-32.427z" />
<glyph unicode="&#x1dd;" glyph-name="profile-tick4" d="M680.998 50.347c-8.107 0-16.213 2.987-22.613 9.387l-64.853 64.853c-12.373 12.373-12.373 32.853 0 45.227s32.853 12.373 45.227 0l42.24-42.24 107.093 107.093c12.373 12.373 32.853 12.373 45.227 0s12.373-32.853 0-45.227l-129.707-129.707c-6.4-6.4-14.507-9.387-22.613-9.387zM518.857 464.213c-1.28 0-2.133 0-3.413 0-2.133 0.427-5.12 0.427-7.68 0-123.734 3.84-217.174 101.12-217.174 221.013-0.427 58.88 22.613 114.347 64.427 156.16s97.281 65.28 156.588 65.28c122.027 0 221.44-99.413 221.44-221.44 0-119.893-93.44-216.747-212.907-221.013-0.427 0-0.853 0-1.28 0zM511.603 842.667c-42.24 0-81.493-16.64-111.361-46.080-29.44-29.867-45.653-69.12-45.653-110.933 0-85.333 66.56-154.453 151.468-157.013 2.56 0.427 8.107 0.427 13.653 0 84.053 3.84 149.333 72.533 149.333 157.013 0 86.187-70.827 157.013-157.44 157.013zM511.582-2.556c-87.042 0-169.388 22.613-231.682 64.427-59.307 39.68-91.733 93.867-91.733 152.32s32.853 112.213 91.733 151.467c127.573 85.333 334.935 85.333 462.508 0 14.507-9.813 18.773-29.867 8.96-44.373-9.813-14.933-29.867-18.773-44.373-8.96-106.24 70.827-285.442 70.827-391.682 0-40.96-27.307-63.147-61.867-63.147-98.133s22.187-71.68 63.147-98.987c51.627-34.56 121.175-53.333 195.842-53.333 17.493 0 32-14.507 32-32s-14.080-32.427-31.573-32.427z" />
<glyph unicode="&#x559;" glyph-name="profile-2user5" d="M384 874.667c-111.787 0-202.667-90.88-202.667-202.667 0-109.653 85.76-198.4 197.547-202.24 3.413 0.427 6.827 0.427 9.387 0 0.853 0 1.28 0 2.133 0 0.427 0 0.427 0 0.853 0 109.227 3.84 194.987 92.587 195.413 202.24 0 111.787-90.88 202.667-202.667 202.667zM600.785 356.314c-119.040 79.36-313.172 79.36-433.065 0-54.187-36.267-84.053-85.333-84.053-137.813s29.867-101.12 83.627-136.96c59.733-40.107 138.24-60.16 216.747-60.16 78.505 0 157.012 20.053 216.745 60.16 53.76 36.267 83.627 84.907 83.627 137.813-0.427 52.48-29.867 101.12-83.627 136.96zM852.881 646.906c6.827-82.773-52.053-155.305-133.547-165.118-0.427 0-0.427 0-0.853 0h-1.28c-2.56 0-5.12 0-7.253-0.853-41.387-2.133-79.36 11.093-107.947 35.413 43.947 39.251 69.12 98.131 64 162.131-2.987 34.56-14.933 66.133-32.853 93.013 16.213 8.107 34.987 13.227 54.187 14.933 83.627 7.253 158.293-55.040 165.547-139.52zM938.167 252.143c-3.413-41.387-29.867-77.227-74.24-101.547-42.667-23.467-96.427-34.56-149.76-33.28 30.72 27.733 48.64 62.293 52.053 98.987 4.267 52.907-20.907 103.68-71.253 144.213-28.587 22.613-61.867 40.533-98.133 53.76 94.293 27.307 212.907 8.96 285.867-49.92 39.253-31.573 59.307-71.253 55.467-112.213z" />
<glyph unicode="&#x55a;" glyph-name="profile-add5" d="M512 874.667c-111.787 0-202.667-90.88-202.667-202.667 0-109.653 85.76-198.4 197.547-202.24 3.413 0.427 6.827 0.427 9.387 0 0.853 0 1.28 0 2.133 0 0.427 0 0.427 0 0.853 0 109.227 3.84 194.987 92.587 195.413 202.24 0 111.787-90.88 202.667-202.667 202.667zM728.785 356.314c-119.040 79.36-313.172 79.36-433.065 0-54.187-36.267-84.053-85.333-84.053-137.813s29.867-101.12 83.627-136.96c59.733-40.107 138.238-60.16 216.745-60.16s157.013 20.053 216.747 60.16c53.76 36.267 83.627 84.907 83.627 137.813-0.427 52.48-29.867 101.12-83.627 136.96zM597.372 186.5h-53.333v-53.333c0-17.493-14.507-32-32-32s-32 14.507-32 32v53.333h-53.333c-17.492 0-31.998 14.507-31.998 32s14.507 32 31.998 32h53.333v53.333c0 17.493 14.507 32 32 32s32-14.507 32-32v-53.333h53.333c17.493 0 32-14.507 32-32s-14.507-32-32-32z" />
<glyph unicode="&#x55b;" glyph-name="profile-circle5" d="M938.667 448c0 235.093-191.573 426.667-426.667 426.667s-426.667-191.573-426.667-426.667c0-123.733 53.333-235.093 137.813-313.173 0-0.427 0-0.427-0.427-0.853 4.267-4.267 9.387-7.68 13.653-11.52 2.56-2.133 4.693-4.267 7.253-5.973 7.68-6.4 16.213-12.373 24.32-18.347 2.987-2.133 5.547-3.84 8.533-5.973 8.107-5.547 16.64-10.667 25.6-15.36 2.987-1.707 6.4-3.84 9.387-5.547 8.533-4.693 17.493-8.96 26.88-12.8 3.413-1.707 6.827-3.413 10.24-4.693 9.387-3.84 18.773-7.253 28.16-10.24 3.413-1.28 6.827-2.56 10.24-3.413 10.24-2.987 20.48-5.547 30.72-8.107 2.987-0.853 5.973-1.707 9.387-2.133 11.947-2.56 23.893-4.267 36.267-5.547 1.707 0 3.413-0.427 5.12-0.853 14.507-1.28 29.013-2.133 43.52-2.133s29.013 0.853 43.093 2.133c1.707 0 3.413 0.427 5.12 0.853 12.373 1.28 24.32 2.987 36.267 5.547 2.987 0.427 5.973 1.707 9.387 2.133 10.24 2.56 20.907 4.693 30.72 8.107 3.413 1.28 6.827 2.56 10.24 3.413 9.387 3.413 19.2 6.4 28.16 10.24 3.413 1.28 6.827 2.987 10.24 4.693 8.96 3.84 17.92 8.107 26.88 12.8 3.413 1.707 6.4 3.84 9.387 5.547 8.533 5.12 17.067 9.813 25.6 15.36 2.987 1.707 5.547 3.84 8.533 5.973 8.533 5.973 16.64 11.947 24.32 18.347 2.56 2.133 4.693 4.267 7.253 5.973 4.693 3.84 9.387 7.68 13.653 11.52 0 0.427 0 0.427-0.427 0.853 84.907 78.080 138.24 189.44 138.24 313.173zM722.773 235.947c-115.627 77.653-305.067 77.653-421.547 0-18.773-12.373-34.133-26.88-46.933-42.667-64.853 65.707-104.96 155.733-104.96 254.72 0 200.107 162.56 362.667 362.667 362.667s362.667-162.56 362.667-362.667c0-98.987-40.107-189.013-104.96-254.72-12.373 15.787-28.16 30.293-46.933 42.667zM512 664.333c-88.32 0-160-71.68-160-160 0-86.613 67.84-157.013 157.867-159.573 1.28 0 2.987 0 3.84 0s2.133 0 2.987 0c0.427 0 0.853 0 0.853 0 86.187 2.987 154.027 72.96 154.453 159.573 0 88.32-71.68 160-160 160z" />
<glyph unicode="&#x55c;" glyph-name="profile-delete5" d="M512 874.667c-111.787 0-202.667-90.88-202.667-202.667 0-109.653 85.76-198.4 197.547-202.24 3.413 0.427 6.827 0.427 9.387 0 0.853 0 1.28 0 2.133 0 0.427 0 0.427 0 0.853 0 109.227 3.84 194.987 92.587 195.413 202.24 0 111.787-90.88 202.667-202.667 202.667zM728.785 356.314c-119.040 79.36-313.172 79.36-433.065 0-54.187-36.267-84.053-85.333-84.053-137.813s29.867-101.12 83.627-136.96c59.733-40.107 138.238-60.16 216.745-60.16s157.013 20.053 216.747 60.16c53.76 36.267 83.627 84.907 83.627 137.813-0.427 52.48-29.867 101.12-83.627 136.96zM594.812 180.954c12.373-12.373 12.373-32.853 0-45.227-6.4-6.4-14.507-9.387-22.613-9.387s-16.213 2.987-22.613 9.387l-37.547 37.547-37.547-37.547c-6.4-6.4-14.507-9.387-22.613-9.387s-16.213 2.987-22.613 9.387c-12.372 12.373-12.372 32.853 0 45.227l37.547 37.547-37.547 37.547c-12.372 12.373-12.372 32.853 0 45.227s32.853 12.373 45.227 0l37.547-37.547 37.547 37.547c12.373 12.373 32.853 12.373 45.227 0s12.373-32.853 0-45.227l-37.547-37.547 37.547-37.547z" />
<glyph unicode="&#x55d;" glyph-name="profile-remove5" d="M512 874.667c-111.787 0-202.667-90.88-202.667-202.667 0-109.653 85.76-198.4 197.547-202.24 3.413 0.427 6.827 0.427 9.387 0 0.853 0 1.28 0 2.133 0 0.427 0 0.427 0 0.853 0 109.227 3.84 194.987 92.587 195.413 202.24 0 111.787-90.88 202.667-202.667 202.667zM728.785 355.814c-119.040 79.36-313.172 79.36-433.065 0-54.187-35.84-84.053-84.907-84.053-137.387s29.867-101.12 83.627-136.96c59.733-40.107 138.238-60.16 216.745-60.16s157.013 20.053 216.747 60.16c53.76 36.267 83.627 84.907 83.627 137.813-0.427 52.053-29.867 101.12-83.627 136.533zM590.118 188.988h-155.733c-16.212 0-29.438 13.227-29.438 29.44s13.227 29.44 29.438 29.44h155.733c16.213 0 29.44-13.227 29.44-29.44s-13.227-29.44-29.44-29.44z" />
<glyph unicode="&#x55e;" glyph-name="profile-tick5" d="M512 874.667c-111.787 0-202.667-90.88-202.667-202.667 0-109.653 85.76-198.4 197.547-202.24 3.413 0.427 6.827 0.427 9.387 0 0.853 0 1.28 0 2.133 0 0.427 0 0.427 0 0.853 0 109.227 3.84 194.987 92.587 195.413 202.24 0 111.787-90.88 202.667-202.667 202.667zM728.785 355.814c-119.040 79.36-313.172 79.36-433.065 0-54.187-35.84-84.053-84.907-84.053-137.387s29.867-101.12 83.627-136.96c59.733-40.107 138.238-60.16 216.745-60.16s157.013 20.053 216.747 60.16c53.76 36.267 83.627 84.907 83.627 137.813-0.427 52.053-29.867 101.12-83.627 136.533zM611.452 253.414l-107.52-107.52c-5.12-5.12-11.947-7.68-18.773-7.68s-13.653 2.987-18.773 7.68l-53.758 53.76c-10.24 10.24-10.24 27.307 0 37.547s27.305 10.24 37.545 0l34.987-34.987 88.747 88.747c10.24 10.24 27.307 10.24 37.547 0 10.667-10.24 10.667-27.307 0-37.547z" />
</font>
</defs>
</svg>
